<?xml version="1.0" standalone="no"?>
<!DOCTYPE svg PUBLIC "-//W3C//DTD SVG 1.1//EN" "http://www.w3.org/Graphics/SVG/1.1/DTD/svg11.dtd" >
<!--
2013-12-6: Created.
-->
<svg xmlns="http://www.w3.org/2000/svg">
<metadata>
Created by FontForge 20120731 at Fri Dec  6 14:03:39 2013
 By Adam Bradley
Created by Adam Bradley with FontForge 2.0 (http://fontforge.sf.net)
</metadata>
<defs>
<font id="Ionicons" horiz-adv-x="448" >
  <font-face 
    font-family="Ionicons"
    font-weight="500"
    font-stretch="normal"
    units-per-em="512"
    panose-1="2 0 6 3 0 0 0 0 0 0"
    ascent="448"
    descent="-64"
    bbox="-0.5 -64.0026 512.487 448"
    underline-thickness="25.6"
    underline-position="-51.2"
    unicode-range="U+F100-F30C"
  />
    <missing-glyph />
    <glyph glyph-name="uniF100" unicode="&#xf100;" 
d="M445 26c3 -5 5 -13 2 -18s-8 -8 -14 -8h-418c-6 0 -11 3 -14 8s-1 13 2 18l207 349c3 5 8 9 14 9s11 -4 14 -9zM256 48v48h-64v-48h64zM256 128v144h-64v-144h64z" />
    <glyph glyph-name="uniF101" unicode="&#xf101;" horiz-adv-x="128" 
d="M128 -32h-128v96h128v-96zM112 128h-96l-16 288h128z" />
    <glyph glyph-name="uniF2C6" unicode="&#xf2c6;" horiz-adv-x="512" 
d="M258 174c59 -18 95 -58 108 -110h-366c13 52 49 92 108 110c22 -13 48 -20 75 -20s53 7 75 20zM183 184c-73 0 -132 59 -132 132s59 132 132 132s132 -59 132 -132s-59 -132 -132 -132zM276 280h-185c14 -37 50 -63 92 -63s79 26 93 63zM512 48v-32h-80v-80h-32v80h-80
v32h80v80h32v-80h80z" />
    <glyph glyph-name="uniF2C7" unicode="&#xf2c7;" horiz-adv-x="512" 
d="M512 224v-64h-224v-224h-64v224h-224v64h224v224h64v-224h224z" />
    <glyph glyph-name="uniF2C8" unicode="&#xf2c8;" horiz-adv-x="512" 
d="M256 400c124 0 224 -100 224 -224s-100 -224 -224 -224s-224 100 -224 224s100 224 224 224zM392 40c36 36 56 85 56 136s-20 100 -56 136s-85 56 -136 56s-100 -20 -136 -56s-56 -85 -56 -136s20 -100 56 -136s85 -56 136 -56s100 20 136 56zM224 160l16 176h24l8 -160
l80 -96l-16 -16zM388 432c53 -27 97 -71 124 -124l-28 -15c-12 24 -28 45 -47 64s-40 35 -64 47l15 28v0zM124 432v0l15 -28c-24 -12 -45 -28 -64 -47s-35 -40 -47 -64l-28 15c27 53 71 97 124 124z" />
    <glyph glyph-name="uniF2C9" unicode="&#xf2c9;" horiz-adv-x="512" 
d="M96 384h320l60 -48h-440zM432 400l80 -64v-352h-512v352l80 64h352zM256 64l112 128h-56v56h-112v-56h-56zM36 336h440l-60 48h-320z" />
    <glyph glyph-name="uniF2CA" unicode="&#xf2ca;" horiz-adv-x="256" 
d="M256 448l-144 -256l144 -256h-112l-144 256l144 256h112z" />
    <glyph glyph-name="uniF2CB" unicode="&#xf2cb;" horiz-adv-x="480" 
d="M0 256h80v-167l343 343l57 -57l-343 -343h167v-80h-304v304z" />
    <glyph glyph-name="uniF2CC" unicode="&#xf2cc;" horiz-adv-x="480" 
d="M480 256v-304h-304v80h167l-343 343l57 57l343 -343v167h80z" />
    <glyph glyph-name="uniF2CD" unicode="&#xf2cd;" horiz-adv-x="480" 
d="M304 432v-80h-167l343 -343l-57 -57l-343 343v-167h-80v304h304z" />
    <glyph glyph-name="uniF2CE" unicode="&#xf2ce;" horiz-adv-x="480" 
d="M176 432h304v-304h-80v167l-343 -343l-57 57l343 343h-167v80z" />
    <glyph glyph-name="uniF2CF" unicode="&#xf2cf;" horiz-adv-x="256" 
d="M192 352h64v-32v-352h-256v352v32h64v32v32h128v-32v-32zM224 224v96h-64v64h-64v-64h-64v-96h192z" />
    <glyph glyph-name="uniF2D0" unicode="&#xf2d0;" horiz-adv-x="512" 
d="M0 448l176 -112v-384l-176 144v352zM512 448v-352l-176 -144v384zM208 -64v384h96v-384h-96zM426 442c17 0 38 -2 38 -2l-160 -96h-48h-48l-160 96s21 2 38 2s54 1 106 -26s64 -44 64 -44s12 17 64 44s89 26 106 26z" />
    <glyph glyph-name="uniF2D1" unicode="&#xf2d1;" horiz-adv-x="512" 
d="M502 416c6 0 10 -4 10 -10v-460c0 -6 -4 -10 -10 -10h-492c-6 0 -10 4 -10 10v460c0 6 4 10 10 10h102v32h64v-32h160v32h64v-32h102zM480 -32v416h-80v-32h-64v32h-160v-32h-64v32h-80v-416h448z" />
    <glyph glyph-name="uniF2D2" unicode="&#xf2d2;" horiz-adv-x="512" 
d="M451 98c38 -28 56 -46 60 -62c4 -19 -7 -26 -40 -64c-32 -37 -61 -36 -84 -36s-61 12 -121 48c-22 14 -49 33 -74 54c-15 12 -35 30 -52 48c-12 12 -24 25 -32 35c-21 25 -40 52 -54 74c-36 60 -54 105 -54 128s-1 52 36 84c38 33 45 44 64 40c16 -4 34 -23 62 -60
s46 -64 40 -76c-8 -15 -25 -23 -56 -39c-11 -6 -32 -18 -28 -28c5 -13 28 -55 81 -109l13 -13v0c48 -44 84 -63 96 -68c10 -4 22 17 28 28c16 31 24 48 39 56c12 6 39 -12 76 -40zM417 353c-31 31 -71 49 -113 52v43c112 -7 201 -96 208 -208h-43c-3 42 -21 82 -52 113z
M304 358c57 -14 103 -61 117 -118h-44c-12 34 -39 61 -73 73v45z" />
    <glyph glyph-name="uniF2D3" unicode="&#xf2d3;" horiz-adv-x="512" 
d="M96 368l-80 -32v48h80v-16zM336 352h176v-352h-512v304l128 48h48v48h32h96h32v-48zM256 48c71 0 128 57 128 128s-57 128 -128 128s-128 -57 -128 -128s57 -128 128 -128zM156 176c0 67 33 100 100 100s100 -33 100 -100s-33 -100 -100 -100s-100 33 -100 100z" />
    <glyph glyph-name="uniF2D4" unicode="&#xf2d4;" horiz-adv-x="480" 
d="M224 448c141 0 256 -115 256 -256s-115 -256 -256 -256v64c-124 0 -224 100 -224 224s100 224 224 224v0zM208 246v48c0 6 -4 10 -10 10h-92c-6 0 -10 -4 -10 -10v-108c0 -6 4 -10 10 -10h70v-16c0 -9 -7 -16 -16 -16v-32c26 0 48 22 48 48v26v60zM384 246v48
c0 6 -4 10 -10 10h-92c-6 0 -10 -4 -10 -10v-108c0 -6 4 -10 10 -10h70v-16c0 -9 -7 -16 -16 -16v-32c26 0 48 22 48 48v26v60z" />
    <glyph glyph-name="uniF2D5" unicode="&#xf2d5;" horiz-adv-x="512" 
d="M176 -16l-176 176l80 83l112 -107l248 248l72 -72z" />
    <glyph glyph-name="uniF2D6" unicode="&#xf2d6;" 
d="M224 416c124 0 224 -100 224 -224s-100 -224 -224 -224s-224 100 -224 224s100 224 224 224zM360 56c36 36 56 85 56 136s-20 100 -56 136s-85 56 -136 56s-100 -20 -136 -56s-56 -85 -56 -136s20 -100 56 -136s85 -56 136 -56s100 20 136 56zM192 176l16 176h24l8 -160
l80 -96l-16 -16z" />
    <glyph glyph-name="uniF2D7" unicode="&#xf2d7;" horiz-adv-x="407" 
d="M407 350l-158 -158l158 -158l-45 -46l-158 159l-159 -159l-45 46l158 158l-158 158l45 46l159 -159l158 159z" />
    <glyph glyph-name="uniF2D8" unicode="&#xf2d8;" horiz-adv-x="488" 
d="M344 82c78 -24 126 -77 144 -146h-488c18 69 66 122 144 146c30 -17 64 -26 100 -26s70 9 100 26zM244 448c97 0 176 -79 176 -176s-79 -176 -176 -176s-176 79 -176 176s79 176 176 176zM244 140c56 0 104 35 123 84h-246c19 -49 67 -84 123 -84z" />
    <glyph glyph-name="uniF2D9" unicode="&#xf2d9;" horiz-adv-x="512" 
d="M237 85c54 -16 87 -53 99 -101h-336c12 47 45 85 99 101c20 -12 44 -19 69 -19s49 7 69 19zM168 336c67 0 121 -54 121 -121s-54 -121 -121 -121s-121 54 -121 121s54 121 121 121zM168 123c38 0 71 26 84 58h-169c13 -32 47 -58 85 -58zM332 48c-15 23 -38 42 -68 54
c13 11 24 23 32 37c15 -6 31 -9 48 -9c25 0 49 7 69 19c54 -16 87 -53 99 -101h-180zM314 245c-9 42 -36 78 -72 99c22 34 59 56 102 56c67 0 121 -54 121 -121s-54 -121 -121 -121c-13 0 -25 2 -37 6c3 9 6 18 8 28c9 -3 19 -5 29 -5c38 0 71 26 84 58h-114z" />
    <glyph glyph-name="uniF2DA" unicode="&#xf2da;" 
d="M224 416c124 0 224 -100 224 -224s-100 -224 -224 -224s-224 100 -224 224s100 224 224 224zM88 56v0v0v0zM240 1c40 3 77 18 108 44l-124 147v144l-16 47c-40 -3 -77 -18 -108 -44l28 -39l-11 -12l-39 28c-26 -31 -42 -68 -45 -108l47 -8v-16l-47 -8
c3 -40 18 -77 44 -108l39 28l12 -11l-28 -39c31 -26 68 -42 108 -45l8 47h16z" />
    <glyph glyph-name="uniF2DB" unicode="&#xf2db;" horiz-adv-x="512" 
d="M140 7c10 0 19 -8 20 -18v-1v-1c0 -10 -10 -19 -20 -19v0v0h-8c-46 0 -79 20 -79 77c0 15 1 31 3 46s2 31 2 45s-1 34 -36 34c-12 0 -22 10 -22 22v0v0c0 12 10 22 22 22c35 0 36 20 36 34s-1 30 -3 45s-3 31 -3 46c0 57 34 77 80 77h8v0v0c10 0 20 -9 20 -19v-1v-1
c-1 -10 -10 -18 -20 -18h-1c-27 -2 -41 -7 -43 -41c-1 -13 0 -26 1 -40c1 -15 3 -29 4 -43c2 -32 -3 -49 -24 -61v0v0c21 -12 26 -29 24 -61c-1 -14 -3 -28 -4 -43c-1 -14 -2 -26 -1 -40c2 -34 16 -39 43 -41h1zM372 7h1c27 2 41 7 43 41c1 14 0 26 -1 40c-1 15 -3 29 -4 43
c-2 32 3 49 24 61v0v0c-21 12 -26 29 -24 61c1 14 3 28 4 43c1 14 2 27 1 40c-2 34 -16 39 -43 41h-1c-10 0 -19 8 -20 18v1v1c0 10 10 19 20 19v0v0h7c46 0 80 -20 80 -77c0 -15 -1 -31 -3 -46s-2 -31 -2 -45s1 -34 36 -34c12 0 22 -10 22 -22v0v0c0 -12 -10 -22 -22 -22
c-35 0 -36 -20 -36 -34s1 -30 2 -45c2 -15 3 -31 3 -46c0 -57 -34 -77 -80 -77h-7v0v0c-10 0 -20 9 -20 19v1v1c1 10 10 18 20 18z" />
    <glyph glyph-name="uniF2DC" unicode="&#xf2dc;" horiz-adv-x="501" 
d="M449 192l52 -53l-74 -29l25 -76l-79 6l-10 -78l-69 40l-44 -66l-44 66l-68 -40l-10 78l-79 -6l25 76l-74 29l52 53l-52 53l74 29l-25 76l79 -6l10 78l68 -40l44 66l44 -66l69 40l10 -78l79 6l-25 -76l74 -29zM250 32c88 0 160 72 160 160s-72 160 -160 160v-320z" />
    <glyph glyph-name="uniF2DD" unicode="&#xf2dd;" 
d="M264 256h88l-128 -128l-128 128h88v175v1h80v-1v-175zM296 404c88 -30 152 -114 152 -212c0 -124 -100 -224 -224 -224s-224 100 -224 224c0 98 64 182 152 212v-34c-24 -10 -46 -24 -64 -42c-36 -36 -56 -85 -56 -136s20 -100 56 -136s85 -56 136 -56s100 20 136 56
s56 85 56 136s-20 100 -56 136c-19 18 -40 32 -64 42v34zM96 80v16h256v-16h-256z" />
    <glyph glyph-name="uniF2DE" unicode="&#xf2de;" horiz-adv-x="288" 
d="M0 32l288 288v-288h-288z" />
    <glyph glyph-name="uniF2DF" unicode="&#xf2df;" 
d="M224 416c124 0 224 -100 224 -224s-100 -224 -224 -224s-224 100 -224 224s100 224 224 224zM32 192c0 -51 20 -100 56 -136c31 -31 71 -49 113 -54c6 16 22 31 8 42c-9 7 -17 14 -25 22c-3 3 -11 21 -9 24c6 9 7 16 9 27c3 13 -4 17 -15 24c-16 10 -31 24 -47 36
c-8 6 -18 10 -21 20s-4 22 -10 30c-15 22 -13 38 -11 64c0 7 -1 17 -2 26c-30 -35 -46 -79 -46 -125zM360 56c36 36 56 85 56 136s-20 100 -56 136c-30 30 -67 48 -108 54v-9l4 -10l-15 -14l-9 3l-11 11l-11 13l-15 6c-17 -3 -33 -8 -49 -15c0 -2 1 -4 1 -7c8 3 16 5 24 8
c3 1 14 -7 17 -9c-4 -5 -22 -17 -23 -23c0 -2 7 -7 7 -11v-18c4 3 21 22 23 22c14 4 37 -19 39 -27s-23 -26 -35 -37c-9 -9 -26 -13 -21 -26c2 -4 11 -22 6 -26c-6 -5 -16 10 -19 13c-9 11 -28 7 -41 7c0 -19 -1 -33 16 -46c16 -12 32 -27 51 -35c14 -6 38 8 50 -1
c17 -12 32 -24 51 -32c8 -4 36 -21 28 -33c-5 -8 -11 -16 -15 -25s-13 -20 -21 -26c-9 -7 -19 -19 -24 -32c38 7 72 25 100 53zM391 262c7 -10 4 -38 4 -50c0 -22 2 -44 -5 -65c-12 9 -23 26 -25 48c-2 23 1 41 -3 61c-3 17 -21 34 -29 50c-7 15 -15 30 -22 45
c2 -1 6 -2 8 -3c14 -13 27 -26 41 -39c12 -12 21 -33 31 -47z" />
    <glyph glyph-name="uniF2E0" unicode="&#xf2e0;" horiz-adv-x="512" 
d="M432 16h-432v352h144l48 -64h240v-32h-368l-40 -128l16 -16l40 128h432z" />
    <glyph glyph-name="uniF2E1" unicode="&#xf2e1;" horiz-adv-x="512" 
d="M422 432c6 0 10 -4 10 -10v-268c0 -6 -4 -10 -10 -10h-230l-112 -112v112h-70c-6 0 -10 4 -10 10v268c0 6 4 10 10 10h412zM502 352c6 0 10 -4 10 -10v-268c0 -6 -4 -10 -10 -10h-70v-112l-112 112h-160l48 48h223c22 0 33 13 33 33v207h38z" />
    <glyph glyph-name="uniF2E2" unicode="&#xf2e2;" horiz-adv-x="512" 
d="M325 117c54 -16 87 -53 99 -101h-336c12 48 45 85 99 101c20 -12 44 -19 69 -19s49 7 69 19zM256 368c67 0 121 -54 121 -121s-54 -121 -121 -121s-121 54 -121 121s54 121 121 121zM256 155c38 0 71 26 84 58h-169c13 -32 47 -58 85 -58zM412 86c-18 20 -42 36 -72 46
c8 6 18 11 30 15c12 -7 26 -11 41 -11s29 4 41 11c32 -10 53 -32 60 -61h-100zM411 298c40 0 73 -33 73 -73s-33 -73 -73 -73c-18 0 -34 7 -47 18c3 5 6 10 9 16c10 -9 23 -16 38 -16c23 0 43 15 51 35h-81c4 12 6 25 6 38c0 16 -3 33 -9 47c10 5 21 8 33 8zM172 132
c-30 -10 -54 -26 -72 -46h-100c7 29 27 51 59 61c12 -7 27 -11 42 -11s29 4 41 11c12 -4 22 -9 30 -15zM101 170c15 0 28 7 38 16c3 -6 5 -11 9 -16c-13 -11 -29 -18 -47 -18c-40 0 -73 33 -73 73s33 73 73 73c12 0 23 -3 33 -8c-6 -14 -9 -31 -9 -47c0 -13 2 -26 6 -38h-81
c8 -20 28 -35 51 -35z" />
    <glyph glyph-name="uniF2E3" unicode="&#xf2e3;" horiz-adv-x="473" 
d="M459 172c17 -17 19 -42 2 -59c0 0 -110 -118 -144 -139v0c-32 -24 -73 -38 -113 -38c-63 0 -117 41 -135 97v1v0c0 1 -1 3 -1 4l-66 216c-6 17 2 36 19 42s35 -3 41 -20l38 -102c2 -4 3 -1 3 2l-26 184c-3 17 9 35 26 38s34 -10 37 -27l29 -157c0 -3 2 -2 2 0l1 202
c0 18 14 32 32 32s32 -14 32 -32l9 -200c0 -5 3 -5 4 -1l27 154c2 18 18 31 36 29s29 -19 27 -37l-24 -196c-2 -13 -4 -34 2 -41c9 -10 24 -10 36 2l48 48c17 17 41 15 58 -2z" />
    <glyph glyph-name="uniF2E4" unicode="&#xf2e4;" horiz-adv-x="512" 
d="M0 448h512v-512h-512v512zM480 -32v448h-448v-448h448zM448 88v-88h-384v136l96 64l112 -96l80 40z" />
    <glyph glyph-name="uniF2E5" unicode="&#xf2e5;" horiz-adv-x="512" 
d="M416 416l96 -256v-192h-512v192l96 256h320zM336 160h112l-64 216h-256l-64 -216h112c0 -44 36 -80 80 -80s80 36 80 80z" />
    <glyph glyph-name="uniF2E6" unicode="&#xf2e6;" 
d="M224 416c124 0 224 -100 224 -224s-100 -224 -224 -224s-224 100 -224 224s100 224 224 224zM256 67v157h-64v-157h64zM224 272c22 0 40 18 40 40s-18 40 -40 40s-40 -18 -40 -40s18 -40 40 -40z" />
    <glyph glyph-name="uniF2E7" unicode="&#xf2e7;" horiz-adv-x="384" 
d="M96 362c0 -6 -4 -10 -10 -10h-76c-6 0 -10 4 -10 10v76c0 6 4 10 10 10h76c6 0 10 -4 10 -10v-76zM243 362c0 -6 -4 -10 -10 -10h-76c-6 0 -10 4 -10 10v76c0 6 4 10 10 10h76c6 0 10 -4 10 -10v-76zM384 362c0 -6 -4 -10 -10 -10h-76c-6 0 -10 4 -10 10v76
c0 6 4 10 10 10h76c6 0 10 -4 10 -10v-76zM96 234c0 -6 -4 -10 -10 -10h-76c-6 0 -10 4 -10 10v76c0 6 4 10 10 10h76c6 0 10 -4 10 -10v-76zM243 234c0 -6 -4 -10 -10 -10h-76c-6 0 -10 4 -10 10v76c0 6 4 10 10 10h76c6 0 10 -4 10 -10v-76zM384 234c0 -6 -4 -10 -10 -10
h-76c-6 0 -10 4 -10 10v76c0 6 4 10 10 10h76c6 0 10 -4 10 -10v-76zM96 106c0 -6 -4 -10 -10 -10h-76c-6 0 -10 4 -10 10v76c0 6 4 10 10 10h76c6 0 10 -4 10 -10v-76zM243 106c0 -6 -4 -10 -10 -10h-76c-6 0 -10 4 -10 10v76c0 6 4 10 10 10h76c6 0 10 -4 10 -10v-76z
M243 -22c0 -6 -4 -10 -10 -10h-76c-6 0 -10 4 -10 10v76c0 6 4 10 10 10h76c6 0 10 -4 10 -10v-76zM384 106c0 -6 -4 -10 -10 -10h-76c-6 0 -10 4 -10 10v76c0 6 4 10 10 10h76c6 0 10 -4 10 -10v-76z" />
    <glyph glyph-name="uniF2E8" unicode="&#xf2e8;" horiz-adv-x="352" 
d="M176 448c97 0 176 -79 176 -176c0 -62 -24 -117 -72 -148v-156h-32v-32h-144v32h-32v156c-48 31 -72 86 -72 148c0 97 79 176 176 176zM248 0v16h-144v-16h144zM248 48v16h-144v-16h144zM262 151c37 24 58 67 58 121c0 38 -15 75 -42 102s-64 42 -102 42
s-75 -15 -102 -42s-42 -64 -42 -102c0 -54 21 -97 58 -121l14 -9v-18v-28h144v28v18z" />
    <glyph glyph-name="uniF2E9" unicode="&#xf2e9;" horiz-adv-x="512" 
d="M160 192c0 64 32 96 96 96s96 -32 96 -96s-32 -96 -96 -96s-96 32 -96 96zM512 208v-32h-65c-4 -47 -22 -87 -55 -120s-73 -51 -120 -55v-65h-32v65c-47 4 -87 22 -120 55s-51 73 -55 120h-65v32h65c1 13 3 26 7 39s9 24 15 35s13 22 21 32s16 18 26 26s21 15 32 21
s22 11 35 15s26 6 39 7v65h32v-65c47 -4 87 -22 120 -55s51 -73 55 -120h65zM256 49c39 0 73 14 101 42s42 62 42 101s-14 73 -42 101s-62 42 -101 42s-73 -14 -101 -42s-42 -62 -42 -101s14 -73 42 -101s62 -42 101 -42z" />
    <glyph glyph-name="uniF2EA" unicode="&#xf2ea;" horiz-adv-x="320" 
d="M320 288c0 -20 -3 -39 -10 -57v0l-1 -1v-1c-67 -171 -149 -293 -149 -293v0s-82 121 -149 292v2l-1 1v0c-7 18 -10 37 -10 57c0 88 72 160 160 160s160 -72 160 -160zM160 256c26 0 48 22 48 48s-22 48 -48 48s-48 -22 -48 -48s22 -48 48 -48z" />
    <glyph glyph-name="uniF2EB" unicode="&#xf2eb;" horiz-adv-x="512" 
d="M256 142l256 124v-266h-512v266zM512 310l-256 -123l-256 123v74h512v-74z" />
    <glyph glyph-name="uniF2EC" unicode="&#xf2ec;" horiz-adv-x="320" 
d="M225 192c0 -35 -29 -64 -64 -64v0c-35 0 -64 29 -64 64v160c0 35 29 64 64 64v0c35 0 64 -29 64 -64v-160zM272 208h48v-8c0 -80 -59 -147 -135 -159v-73h-48v73c-78 11 -137 78 -137 159v8h48v-8c0 -30 12 -59 33 -80s49 -32 79 -32s58 11 79 32s33 50 33 80v8z" />
    <glyph glyph-name="uniF2ED" unicode="&#xf2ed;" horiz-adv-x="512" 
d="M0 335v32h304v-32h-304zM432 335v32h80v-32h-80zM0 176v32h80v-32h-80zM208 176v32h304v-32h-304zM0 14v32h304v-32h-304zM432 14v32h80v-32h-80zM192 136c0 -22 -22 -40 -48 -40v0c-26 0 -48 18 -48 40v112c0 22 22 40 48 40v0c26 0 48 -18 48 -40v-112zM416 296
c0 -22 -22 -40 -48 -40v0c-26 0 -48 18 -48 40v112c0 22 22 40 48 40v0c26 0 48 -18 48 -40v-112zM416 -24c0 -22 -22 -40 -48 -40v0c-26 0 -48 18 -48 40v112c0 22 22 40 48 40v0c26 0 48 -18 48 -40v-112z" />
    <glyph glyph-name="uniF2EE" unicode="&#xf2ee;" horiz-adv-x="128" 
d="M0 128v128h128v-128h-128zM0 320v128h128v-128h-128zM0 -64v128h128v-128h-128z" />
    <glyph glyph-name="uniF2EF" unicode="&#xf2ef;" horiz-adv-x="464" 
d="M0 448h464v-512h-464v512zM40 384v-64h256v64h-256zM424 32v48h-384v-48h384zM424 128v48h-384v-48h384zM424 224v48h-384v-48h384z" />
    <glyph glyph-name="uniF2F0" unicode="&#xf2f0;" horiz-adv-x="512" 
d="M256 416c53 0 96 -43 96 -96h-192c0 53 43 96 96 96zM512 320c-23 -265 -16 -384 -16 -384h-480s7 116 -16 384h128c0 71 57 128 128 128s128 -57 128 -128h128zM256 416c-53 0 -96 -43 -96 -96h192c0 53 -43 96 -96 96zM192 16l176 104l-176 104v-208z" />
    <glyph glyph-name="uniF2F1" unicode="&#xf2f1;" horiz-adv-x="512" 
d="M96 320v96h320v-96h-320zM512 229v0v-165h-96v-96h-320v96h-96v165v0c0 33 27 59 60 59h392c33 0 60 -26 60 -59zM352 32v128h-192v-128h192zM416 200c13 0 24 11 24 24s-11 24 -24 24s-24 -11 -24 -24s11 -24 24 -24z" />
    <glyph glyph-name="uniF2F2" unicode="&#xf2f2;" horiz-adv-x="384" 
d="M384 256l-192 -192l-192 192v192h192v0zM96 304c26 0 48 22 48 48s-22 48 -48 48s-48 -22 -48 -48s22 -48 48 -48zM384 192v-64l-192 -192l-192 192v64l192 -192z" />
    <glyph glyph-name="uniF2F3" unicode="&#xf2f3;" horiz-adv-x="416" 
d="M0 48l64 160v96c0 80 64 144 144 144v0c80 0 144 -64 144 -144v-96l64 -160zM208 -64c-54 0 -100 33 -119 80h238c-19 -47 -65 -80 -119 -80z" />
    <glyph glyph-name="uniF2F4" unicode="&#xf2f4;" horiz-adv-x="512" 
d="M0 160v64h512v-64h-512z" />
    <glyph glyph-name="uniF2F5" unicode="&#xf2f5;" horiz-adv-x="512" 
d="M510 6c6 -6 -3 -27 -22 -46s-40 -28 -46 -22l-113 113c-4 4 -1 15 8 28l-40 40c-31 -24 -70 -39 -113 -39c-102 0 -184 82 -184 184s82 184 184 184s184 -82 184 -184c0 -43 -15 -82 -39 -113l40 -40c13 9 24 12 28 8zM184 120c38 0 75 15 102 42s42 64 42 102
s-15 75 -42 102s-64 42 -102 42s-75 -15 -102 -42s-42 -64 -42 -102s15 -75 42 -102s64 -42 102 -42z" />
    <glyph glyph-name="uniF2F6" unicode="&#xf2f6;" horiz-adv-x="512" 
d="M0 448l512 -256l-512 -256l43 235l426 21l-426 21z" />
    <glyph glyph-name="uniF2F7" unicode="&#xf2f7;" horiz-adv-x="491" 
d="M438 192c0 -14 -2 -28 -5 -42l58 -44l-48 -84l-67 29c-21 -19 -45 -33 -73 -42l-9 -73h-96l-9 73c-28 9 -52 23 -73 42l-68 -29l-48 84l58 44c-3 14 -4 28 -4 42s1 28 4 42l-58 44l48 84l68 -29c21 19 45 33 73 42l9 73h96l9 -73c28 -9 52 -23 73 -42l67 29l48 -84
l-58 -44c3 -14 5 -28 5 -42zM246 128c35 0 64 29 64 64s-29 64 -64 64s-64 -29 -64 -64s29 -64 64 -64z" />
    <glyph glyph-name="uniF2F8" unicode="&#xf2f8;" horiz-adv-x="480" 
d="M400 96c44 0 80 -36 80 -80s-36 -80 -80 -80s-80 36 -80 80c0 5 0 10 1 14l-186 104c-14 -13 -34 -22 -55 -22c-44 0 -80 36 -80 80s36 80 80 80c21 0 41 -9 55 -22l186 104c-1 5 -1 9 -1 14c0 44 36 80 80 80s80 -36 80 -80s-36 -80 -80 -80c-22 0 -42 9 -56 23
l-186 -102c1 -5 2 -11 2 -17s-1 -12 -2 -17l185 -102c14 14 35 23 57 23z" />
    <glyph glyph-name="uniF2F9" unicode="&#xf2f9;" horiz-adv-x="512" 
d="M142 334c0 76 38 114 114 114s114 -38 114 -114s-38 -114 -114 -114s-114 38 -114 114zM502 50c7 -7 10 -14 10 -22v-92h-512v92c0 8 3 15 10 22c61 61 143 91 246 91s185 -30 246 -91z" />
    <glyph glyph-name="uniF2FA" unicode="&#xf2fa;" horiz-adv-x="512" 
d="M256 280c0 53 27 80 80 80s80 -27 80 -80s-27 -80 -80 -80s-80 27 -80 80zM73 213c0 41 20 61 61 61s61 -20 61 -61s-20 -61 -61 -61s-61 20 -61 61zM136 112c7 0 15 -1 24 -2v0v0c-21 -17 -31 -30 -32 -38v-72h-128v50c0 2 1 5 2 7s1 3 3 5c33 33 76 50 131 50zM505 80
c5 -5 7 -10 7 -15v-65h-352v65c0 5 2 10 7 15c42 43 98 64 169 64s127 -21 169 -64z" />
    <glyph glyph-name="uniF2FB" unicode="&#xf2fb;" horiz-adv-x="512" 
d="M0 288v64h512v-64h-512zM0 160v64h352v-64h-352zM0 32v64h192v-64h-192z" />
    <glyph glyph-name="uniF2FC" unicode="&#xf2fc;" horiz-adv-x="512" 
d="M512 246l-136 -121l40 -178l-160 85l-160 -85l40 178l-136 121l182 17l74 174l74 -174z" />
    <glyph glyph-name="uniF2FD" unicode="&#xf2fd;" 
d="M240 383c116 -8 208 -105 208 -223c0 -124 -100 -224 -224 -224s-224 100 -224 224c0 118 92 215 208 223v17h-32v48h96v-48h-32v-17zM360 24c36 36 56 85 56 136s-20 100 -56 136s-85 56 -136 56s-100 -20 -136 -56s-56 -85 -56 -136s20 -100 56 -136s85 -56 136 -56
s100 20 136 56zM337 273c3 -3 3 -8 0 -11l-74 -74c6 -8 9 -18 9 -28c0 -26 -22 -48 -48 -48s-48 22 -48 48s22 48 48 48c10 0 20 -3 28 -9l74 74c3 3 8 3 11 0zM224 128c18 0 32 14 32 32s-14 32 -32 32s-32 -14 -32 -32s14 -32 32 -32z" />
    <glyph glyph-name="uniF2FE" unicode="&#xf2fe;" 
d="M0 256h448v-128h-448v128zM128 160v32h-96v-32h96zM0 416h448v-128h-448v128zM128 320v32h-96v-32h96zM0 96h448v-128h-448v128zM128 0v32h-96v-32h96z" />
    <glyph glyph-name="uniF2FF" unicode="&#xf2ff;" horiz-adv-x="512" 
d="M416 256c53 0 96 -43 96 -96s-43 -96 -96 -96h-192v32h192c35 0 64 29 64 64s-29 64 -64 64v0h-361l67 -80h-42l-80 96l80 96h42l-67 -80h361z" />
    <glyph glyph-name="uniF300" unicode="&#xf300;" horiz-adv-x="512" 
d="M256 303l-224 -84v-123h448v123zM256 338v0l256 -96v-178h-512v178z" />
    <glyph glyph-name="uniF301" unicode="&#xf301;" horiz-adv-x="512" 
d="M0 256h416v-192h-416v192zM384 96v128h-352v-128h352zM128 320h384v-192h-32v160h-352v32z" />
    <glyph glyph-name="uniF302" unicode="&#xf302;" horiz-adv-x="320" 
d="M210 202c87 -46 110 -206 110 -234h-320c0 27 23 188 110 234c-87 41 -110 187 -110 214h320c0 -26 -23 -172 -110 -214zM61 304c12 -25 25 -44 41 -58c17 -15 36 -22 58 -22s41 7 58 22c16 14 29 34 41 59c12 26 19 52 23 69c1 3 2 10 2 10h-248c4 -21 12 -52 25 -80z
M284 0c-4 25 -12 58 -26 91c-12 29 -25 51 -41 67c-17 17 -36 25 -57 25s-39 -8 -56 -25c-16 -16 -30 -38 -42 -67c-14 -33 -22 -66 -26 -91h248z" />
    <glyph glyph-name="uniF303" unicode="&#xf303;" horiz-adv-x="352" 
d="M16 249c39 -10 68 -21 160 -21s121 12 160 21c-2 -54 -10 -224 -11 -266c-1 -25 -66 -46 -147 -46s-145 21 -146 46c-2 34 -13 212 -16 266zM256 374c81 -10 96 -10 96 -53s-68 -59 -176 -59s-176 16 -176 58s17 44 96 54v66c0 6 5 8 11 8h140c6 0 9 -2 9 -8v-66z
M128 416v-39c15 1 31 1 48 1s34 0 48 -1v39h-96z" />
    <glyph glyph-name="uniF304" unicode="&#xf304;" horiz-adv-x="512" 
d="M234 448c54 0 70 -115 70 -256s-16 -256 -70 -256c-42 0 -74 64 -138 160h-64c-18 0 -32 43 -32 96s14 96 32 96h64c64 96 96 160 138 160zM240 -14c24 0 34 82 34 206s-10 206 -34 206c-18 0 -24 -78 -27 -144c28 -7 43 -32 43 -62s-15 -55 -43 -62
c3 -66 9 -144 27 -144zM466 370c30 -52 46 -113 46 -178s-17 -126 -47 -178l-23 24c4 8 8 16 12 25c17 41 26 84 26 129s-9 88 -26 129c-4 9 -8 17 -12 25zM411 295c23 -28 37 -64 37 -103s-14 -75 -37 -103l-22 23c18 23 27 51 27 80c0 30 -9 57 -27 80zM375 229
c6 -11 9 -24 9 -37s-3 -27 -9 -38l-30 12c4 8 7 17 7 26s-3 18 -7 26z" />
    <glyph glyph-name="uniF305" unicode="&#xf305;" horiz-adv-x="512" 
d="M333 181c20 -8 38 -20 54 -34l-54 -61c-21 16 -48 26 -77 26s-56 -10 -77 -26l-54 61c16 14 34 26 54 34c24 10 50 16 77 16s53 -6 77 -16zM256 96c24 0 47 -8 66 -22l-66 -74l-66 74c19 14 42 22 66 22zM372 269c29 -12 56 -28 80 -49l-55 -61c-38 34 -87 54 -141 54
s-103 -21 -141 -54l-55 61c24 21 51 37 80 49c37 16 76 24 116 24s79 -8 116 -24zM256 384c98 0 188 -36 256 -96l-50 -56c-55 48 -127 77 -206 77s-151 -29 -206 -77l-50 56c68 60 158 96 256 96z" />
    <glyph glyph-name="uniF102" unicode="&#xf102;" 
d="M224 140l-128 116h80v96h96v-96h80zM433 151c11 -6 17 -19 15 -32l-9 -67c-2 -13 -9 -20 -28 -20h-374c-18 0 -26 7 -28 20l-9 67c-2 13 3 26 14 32l72 55h42l-62 -62h50c2 0 5 -1 6 -3l18 -45h168l18 45c1 2 3 3 5 3h51l-62 62h42z" />
    <glyph glyph-name="uniF103" unicode="&#xf103;" horiz-adv-x="384" 
d="M192 -0l-192 192h112v192h160v-192h112z" />
    <glyph glyph-name="uniF104" unicode="&#xf104;" horiz-adv-x="320" 
d="M3 263c-2 2 -3 6 -3 9c0 9 8 16 17 16v0h286v0c9 0 17 -7 17 -16c0 -3 -1 -6 -3 -8l-2 -3l-136 -156c-5 -5 -11 -9 -19 -9s-14 4 -19 9l-136 156z" />
    <glyph glyph-name="uniF105" unicode="&#xf105;" horiz-adv-x="274" 
d="M265 125l-105 -100c-6 -6 -14 -9 -23 -9s-16 3 -22 9l-106 100c-12 12 -12 31 0 43s34 12 46 0l50 -48v217c0 17 14 31 32 31s32 -14 32 -31v-217l50 48c12 12 34 12 46 0s12 -31 0 -43z" />
    <glyph glyph-name="uniF25E" unicode="&#xf25e;" horiz-adv-x="320" 
d="M178 238l64 64l-50 50h128v-128l-50 50l-64 -64zM178 146l28 28l64 -64l50 50v-128h-128l50 50zM142 146l-64 -64l50 -50h-128v128l50 -50l64 64zM142 238l-28 -28l-64 64l-50 -50v128h128l-50 -50z" />
    <glyph glyph-name="uniF25F" unicode="&#xf25f;" 
d="M0 64v160l61 -61l131 141l107 -112l149 128l-149 -203l-107 107l-94 -98l62 -62h-160z" />
    <glyph glyph-name="uniF260" unicode="&#xf260;" 
d="M288 64l62 62l-94 98l-107 -107l-149 203l149 -128l107 112l131 -141l61 61v-160h-160z" />
    <glyph glyph-name="uniF261" unicode="&#xf261;" 
d="M160 320l-62 -62l94 -98l107 107l149 -203l-149 128l-107 -112l-131 141l-61 -61v160h160z" />
    <glyph glyph-name="uniF262" unicode="&#xf262;" 
d="M288 320h160v-160l-61 61l-131 -141l-107 112l-149 -128l149 203l107 -107l94 98z" />
    <glyph glyph-name="uniF106" unicode="&#xf106;" horiz-adv-x="384" 
d="M0 192l192 192v-112h192v-160h-192v-112z" />
    <glyph glyph-name="uniF107" unicode="&#xf107;" horiz-adv-x="192" 
d="M167 349c2 2 6 3 9 3c9 0 16 -8 16 -17v0v-286v0c0 -9 -7 -17 -16 -17c-3 0 -7 1 -9 3l-2 2l-156 136c-5 5 -9 11 -9 19s4 14 9 19l156 136z" />
    <glyph glyph-name="uniF108" unicode="&#xf108;" horiz-adv-x="352" 
d="M109 320c12 12 32 12 44 0s12 -34 0 -46l-49 -50h217c17 0 31 -14 31 -32s-14 -32 -31 -32h-217l48 -50c12 -12 12 -34 0 -46s-31 -12 -43 0l-100 106c-6 6 -9 13 -9 22s3 17 9 23z" />
    <glyph glyph-name="uniF263" unicode="&#xf263;" 
d="M448 192l-96 -96v76h-109l1 -108h76l-96 -96l-96 96h76v108h-108v-76l-96 96l96 96v-76h108v108h-76l96 96l96 -96h-76v-108h108v76z" />
    <glyph glyph-name="uniF264" unicode="&#xf264;" horiz-adv-x="320" 
d="M192 352h128v-128l-50 50l-9 -9l-183 -183l50 -50h-128v128l50 -50l128 128v0l64 64z" />
    <glyph glyph-name="uniF265" unicode="&#xf265;" horiz-adv-x="384" 
d="M128 352v-64h248c4 0 8 -4 8 -8v-240c0 -4 -4 -8 -8 -8h-304c-4 0 -8 4 -8 8v48c0 4 4 8 8 8h248v128h-192v-64l-128 96z" />
    <glyph glyph-name="uniF266" unicode="&#xf266;" horiz-adv-x="384" 
d="M384 256l-128 -96v64h-192v-128h248c4 0 8 -4 8 -8v-48c0 -4 -4 -8 -8 -8h-304c-4 0 -8 4 -8 8v240c0 4 4 8 8 8h248v64z" />
    <glyph glyph-name="uniF109" unicode="&#xf109;" horiz-adv-x="384" 
d="M384 192l-192 -192v112h-192v160h192v112z" />
    <glyph glyph-name="uniF10A" unicode="&#xf10a;" horiz-adv-x="192" 
d="M25 35c-2 -2 -6 -3 -9 -3c-9 0 -16 8 -16 17v0v286v0c0 9 7 17 16 17c3 0 6 -1 8 -3l3 -2l156 -136c5 -5 9 -11 9 -19s-4 -14 -9 -19l-156 -136z" />
    <glyph glyph-name="uniF10B" unicode="&#xf10b;" horiz-adv-x="352" 
d="M243 320l100 -105c6 -6 9 -14 9 -23s-3 -16 -9 -22l-100 -106c-12 -12 -31 -12 -43 0s-12 34 0 46l48 50h-217c-17 0 -31 14 -31 32s14 32 31 32h217l-49 50c-12 12 -12 34 0 46s32 12 44 0z" />
    <glyph glyph-name="uniF267" unicode="&#xf267;" horiz-adv-x="384" 
d="M384 356l-82 -82l50 -50h-128v128l50 -50l82 82zM384 28l-28 -28l-82 82l-50 -50v128h128l-50 -50zM0 28l82 82l-50 50h128v-128l-50 50l-82 -82zM0 356l28 28l82 -82l50 50v-128h-128l50 50z" />
    <glyph glyph-name="uniF268" unicode="&#xf268;" horiz-adv-x="384" 
d="M0 120c0 4 4 8 8 8h248v64l128 -96l-128 -96v64h-248c-4 0 -8 4 -8 8v48zM384 264c0 -4 -4 -8 -8 -8h-248v-64l-128 96l128 96v-64h248c4 0 8 -4 8 -8v-48z" />
    <glyph glyph-name="uniF10C" unicode="&#xf10c;" horiz-adv-x="384" 
d="M192 384l192 -192h-112v-192h-160v192h-112z" />
    <glyph glyph-name="uniF10D" unicode="&#xf10d;" horiz-adv-x="320" 
d="M317 121c2 -2 3 -6 3 -9c0 -9 -8 -16 -17 -16v0h-286v0c-9 0 -17 7 -17 16c0 3 1 6 3 8l2 3l136 156c5 5 11 9 19 9s14 -4 19 -9l136 -156z" />
    <glyph glyph-name="uniF10E" unicode="&#xf10e;" horiz-adv-x="274" 
d="M9 259l105 100c6 6 14 9 23 9s16 -3 22 -9l106 -100c12 -12 12 -31 0 -43s-34 -12 -46 0l-50 48v-217c0 -17 -14 -31 -32 -31s-32 14 -32 31v217l-50 -49c-12 -12 -34 -12 -46 0s-12 32 0 44z" />
    <glyph glyph-name="uniF10F" unicode="&#xf10f;" 
d="M422 41c-24 -25 -52 -43 -85 -55s-69 -18 -105 -18c-35 0 -66 6 -95 17s-53 26 -73 46s-36 43 -47 71s-17 58 -17 90s6 62 18 89s29 51 50 71s46 35 74 47c28 11 58 17 90 17c28 0 55 -4 81 -12s49 -20 69 -36s36 -36 48 -60s18 -53 18 -85c0 -24 -3 -46 -10 -64
s-16 -34 -27 -46s-24 -22 -38 -28s-29 -10 -45 -10s-29 4 -39 12s-15 17 -15 29h-3c-6 -10 -15 -19 -28 -28s-28 -13 -46 -13c-28 0 -49 9 -64 27s-23 42 -23 71c0 17 3 34 9 50s14 31 24 44s23 23 38 31s31 12 49 12c15 0 27 -4 38 -10c10 -6 18 -15 21 -24h1l5 24h54
l-24 -113c-1 -6 -2 -12 -3 -19s-2 -13 -2 -19c0 -7 1 -13 4 -18s7 -7 15 -7c16 0 29 9 39 26s16 40 16 68c0 24 -4 45 -12 64s-20 34 -34 47s-32 23 -52 29s-41 9 -65 9c-26 0 -49 -4 -70 -13s-39 -22 -54 -38s-27 -34 -35 -56c-8 -21 -13 -44 -13 -69c0 -26 4 -51 13 -72
s21 -39 37 -54s35 -27 57 -35s46 -12 72 -12c33 0 61 6 85 16s45 25 65 43zM231 260c-10 0 -18 -2 -25 -8s-14 -13 -19 -22s-8 -18 -11 -28s-4 -20 -4 -30c0 -5 0 -10 1 -16c1 -5 3 -10 6 -15s7 -8 12 -11s11 -5 19 -5c11 0 20 3 28 8s14 13 19 21s9 16 11 26s3 19 3 27
c0 6 0 13 -1 19s-4 12 -7 17s-7 9 -12 12s-12 5 -20 5z" />
    <glyph glyph-name="uniF110" unicode="&#xf110;" 
d="M416 288l32 -320h-448l32 320h64v4c0 68 56 124 124 124h8c68 0 124 -56 124 -124v-4h64zM128 292v-4h192v4c0 51 -41 92 -92 92v0h-8c-51 0 -92 -41 -92 -92zM36 0h376l-25 256h-35v-36c10 -6 16 -16 16 -28c0 -18 -14 -32 -32 -32s-32 14 -32 32c0 12 6 22 16 28v36
h-192v-36c10 -6 16 -16 16 -28c0 -18 -14 -32 -32 -32s-32 14 -32 32c0 12 6 22 16 28v36h-35z" />
    <glyph glyph-name="uniF111" unicode="&#xf111;" 
d="M10 64c-6 0 -10 4 -10 10v236c0 6 4 10 10 10h381c6 0 10 -4 10 -10v-54h37c6 0 10 -4 10 -10v-108c0 -6 -4 -10 -10 -10h-37v-54c0 -6 -4 -10 -10 -10h-381zM225 288l-100 -111h61l-27 -81l100 111h-61z" />
    <glyph glyph-name="uniF112" unicode="&#xf112;" 
d="M438 256c6 0 10 -4 10 -10v-108c0 -6 -4 -10 -10 -10h-37v-54c0 -6 -4 -10 -10 -10h-381c-6 0 -10 4 -10 10v236c0 6 4 10 10 10h381c6 0 10 -4 10 -10v-54h37zM416 160v64h-15h-32v32v32h-337v-192h337v32v32h32h15z" />
    <glyph glyph-name="uniF113" unicode="&#xf113;" 
d="M438 256c6 0 10 -4 10 -10v-108c0 -6 -4 -10 -10 -10h-37v-54c0 -6 -4 -10 -10 -10h-381c-6 0 -10 4 -10 10v236c0 6 4 10 10 10h381c6 0 10 -4 10 -10v-54h37z" />
    <glyph glyph-name="uniF114" unicode="&#xf114;" 
d="M438 256c6 0 10 -4 10 -10v-108c0 -6 -4 -10 -10 -10h-37v-54c0 -6 -4 -10 -10 -10h-381c-6 0 -10 4 -10 10v236c0 6 4 10 10 10h381c6 0 10 -4 10 -10v-54h37zM416 160v64h-15h-32v32v32h-81l32 -192h49v32v32h32h15z" />
    <glyph glyph-name="uniF115" unicode="&#xf115;" 
d="M10 64c-6 0 -10 4 -10 10v236c0 6 4 10 10 10h381c6 0 10 -4 10 -10v-54h37c6 0 10 -4 10 -10v-108c0 -6 -4 -10 -10 -10h-37v-54c0 -6 -4 -10 -10 -10h-381zM369 288h-209l32 -192h177v32v32h32h15v64h-15h-32v32v32z" />
    <glyph glyph-name="uniF269" unicode="&#xf269;" horiz-adv-x="384" 
d="M375 52c6 -9 9 -20 9 -32c0 -28 -16 -52 -63 -52h-258c-47 0 -63 24 -63 52c0 12 3 23 9 32l49 73l48 73l2 3c13 20 20 45 20 71v92s-15 30 -15 39s6 13 15 13h127c9 0 16 -3 16 -12s-15 -20 -15 -40v-92c0 -26 6 -51 19 -71l3 -4l48 -72zM345 7c3 3 7 8 7 14
c0 5 -2 10 -4 14l-49 72v0v1l-48 72s-2 3 -3 5c-16 26 -24 56 -24 87v74c0 7 0 18 1 22c5 18 0 16 -9 16h-47c-9 0 -15 2 -10 -16c1 -4 1 -16 1 -22v-74c0 -32 -9 -62 -25 -87l-3 -5l-47 -73v0v0l-49 -73c-2 -4 -4 -9 -4 -14c0 -6 3 -10 6 -13c4 -4 12 -7 25 -7h258
c13 0 20 3 24 7zM327 37l1 -1c1 -2 2 -4 2 -6c0 -7 -6 -14 -14 -14v0h-16h-30h-157h-29h-16v0c-7 0 -14 6 -14 14c0 3 1 5 3 7l8 13l1 1v0v1l16 23l42 66l1 1v0v0l12 18h109l14 -20v0l1 -1l1 -2l40 -62l12 -18zM125 141l-1 -1v0l1 1v0zM238 106c2 -1 4 -2 6 -2s3 0 5 2
c1 2 3 4 3 6s-1 4 -3 6c-1 2 -3 2 -5 2s-4 0 -6 -2c-1 -2 -2 -4 -2 -6s0 -4 2 -6zM274 50c2 -2 5 -4 7 -4c1 0 3 0 4 1c4 2 4 7 2 11l-23 36c-1 2 -4 4 -7 4c-2 0 -3 0 -4 -1c-4 -2 -5 -7 -3 -11zM124 141v0c-4 -5 0 0 0 0z" />
    <glyph glyph-name="uniF26A" unicode="&#xf26a;" 
d="M384 288c35 0 64 -29 64 -64v-96c0 -35 -29 -64 -64 -64h-32v-80c0 -9 -7 -16 -16 -16h-256c-9 0 -16 7 -16 16v223c-26 0 -48 22 -48 48v54v1c-10 11 -16 26 -16 42c0 35 29 64 64 64c18 0 34 -8 46 -20c10 12 26 20 43 20c14 0 27 -6 37 -14c12 9 26 14 42 14
c17 0 34 -6 46 -16c11 10 26 16 42 16c35 0 64 -29 64 -64c0 -24 -18 -44 -32 -48v-16h32zM296 144c4 0 8 3 8 8v0v48c0 4 -4 8 -8 8s-8 -4 -8 -8v-48c0 -3 2 -6 4 -7c1 -1 2 -1 4 -1zM303 220c1 2 1 4 1 6s-1 4 -3 5s-4 1 -6 1s-4 -2 -5 -4s-2 -4 -2 -6s2 -4 4 -5
s4 -1 6 -1s4 2 5 4zM320 288v32h-20c-3 -8 -7 -16 -13 -23c-13 -16 -33 -25 -55 -25c-26 0 -48 13 -61 33c-6 -2 -12 -3 -18 -3c-12 0 -23 4 -32 10c-2 1 -3 3 -5 4c-1 -2 -2 -3 -3 -5c-5 -6 -11 -10 -17 -14v-32v-9h80c0 4 4 8 8 8s8 -4 8 -8h128v32zM351 343c1 3 1 6 1 9
c0 18 -14 32 -32 32c-9 0 -17 -4 -23 -10c-2 -2 -6 -5 -16 -6h-8c-6 1 -12 3 -14 5c-7 7 -16 11 -27 11c-9 0 -18 -4 -25 -9l-7 -7c0 -1 0 -1 -1 -2c-3 -3 -7 -5 -11 -5c-5 0 -8 3 -11 6c-1 2 -2 3 -3 5s-3 4 -5 6c-4 4 -10 6 -16 6c-10 0 -18 -9 -25 -16
c-7 -8 -27 -8 -34 0s-18 16 -30 16c-18 0 -32 -14 -32 -32c0 -2 1 -5 1 -7c2 -9 7 -17 15 -21v-34v-35c0 -9 7 -16 16 -16v26v23v32c10 0 18 4 24 11c2 2 3 4 4 6c0 0 6 10 12 11s20 6 30 -5c4 -5 11 -9 19 -9c3 0 5 1 7 2c3 1 7 2 9 4v0c3 2 6 4 10 4c7 0 12 -4 14 -10
c0 0 1 -1 1 -2c1 -3 1 -5 3 -8c7 -12 20 -20 35 -20c13 0 25 6 32 16c5 7 8 15 8 24s9 8 9 8h7h48c6 0 13 -3 15 -9zM416 128v96c0 18 -14 32 -32 32h-32v-160h32c18 0 32 14 32 32zM128 280c0 5 3 8 8 8s8 -3 8 -8s-3 -8 -8 -8s-8 3 -8 8zM288 280c0 5 3 8 8 8s8 -3 8 -8
s-3 -8 -8 -8s-8 3 -8 8z" />
    <glyph glyph-name="uniF116" unicode="&#xf116;" horiz-adv-x="256" 
d="M12 304c16 16 18 13 19 12l68 -65v0v0c2 -2 10 -10 10 -3v156v0v2c0 6 6 10 12 10c4 0 7 -2 9 -4v0s117 -113 122 -117s5 -10 1 -14l-84 -81s-4 -4 -4 -8s4 -8 4 -8l84 -81c4 -4 4 -10 -1 -14s-122 -117 -122 -117v0c-2 -2 -5 -4 -9 -4c-6 0 -12 4 -12 10v2v0v156
s-8 -1 -10 -3v0v-1l-68 -64c-1 -1 -3 -4 -19 12s-12 17 -11 18s90 86 90 86s4 3 4 8v0c0 5 -4 8 -4 8s-89 85 -90 86s-5 2 11 18zM152 328v-79c0 -8 8 -1 10 1l30 30s3 5 3 7s-1 5 -3 7l-30 30c-2 2 -10 11 -10 4zM152 135v-79s8 2 10 4l30 30c2 2 3 5 3 7s-1 5 -3 7l-30 30
c-2 2 -10 9 -10 1z" />
    <glyph glyph-name="uniF26B" unicode="&#xf26b;" horiz-adv-x="192" 
d="M184 384c4 0 8 -4 8 -8v-56h-192v56c0 4 4 8 8 8h176zM0 0v304h192v-304l-96 96z" />
    <glyph glyph-name="uniF26C" unicode="&#xf26c;" 
d="M240 176v8h208v-176c0 -4 -4 -8 -8 -8h-432c-4 0 -8 4 -8 8v176h208v-8h32zM440 304c4 0 8 -4 8 -8v-96h-208v8h-32v-8h-208v96c0 4 4 8 8 8h120v31c1 28 22 49 51 49h90c30 0 50 -21 51 -49v-31h120zM288 332v1c0 10 -9 19 -19 19h-90c-10 0 -19 -9 -19 -19v-1v-1v-27
h128v27v1z" />
    <glyph glyph-name="uniF2BE" unicode="&#xf2be;" horiz-adv-x="512" 
d="M217 -41c22 32 30 77 39 137c9 -60 17 -105 39 -137c-15 -4 -23 -7 -39 -7s-24 2 -39 7zM456 0l24 -32l32 -24l-16 -8l-48 32l-32 32l-10 20c-22 -32 -52 -57 -86 -71c-9 12 -17 27 -24 45c-20 53 -32 123 -32 198v160c39 -2 74 -9 104 -34c-32 30 -70 50 -112 50
s-80 -20 -112 -50c30 25 65 32 104 34v-160c0 -75 -12 -145 -32 -198c-7 -18 -15 -34 -23 -46c-34 14 -65 40 -87 72l-10 -20l-32 -32l-48 -32l-16 8l32 24l24 32l8 152v0c1 27 6 52 14 75l-14 -3l-32 -32l-16 -32h-16l32 80l88 63l-24 81l-32 32l-32 16v16l64 -24l47 -44
c21 40 64 68 113 68s92 -28 113 -68l47 44l64 24v-16l-32 -16l-32 -32l-24 -81l88 -63l32 -80h-16l-16 32l-32 32l-14 3c8 -23 13 -48 14 -75v0z" />
    <glyph glyph-name="uniF26D" unicode="&#xf26d;" horiz-adv-x="320" 
d="M304 416c9 0 16 -7 16 -16v-416c0 -9 -7 -16 -16 -16h-288c-9 0 -16 7 -16 16v416c0 9 7 16 16 16h288zM48 240v-32h32v32h-32zM48 176v-32h32v32h-32zM48 112v-32h32v32h-32zM144 16v32h-96v-32h96zM144 80v32h-32v-32h32zM144 144v32h-32v-32h32zM144 208v32h-32v-32
h32zM208 16v32h-32v-32h32zM208 80v32h-32v-32h32zM208 144v32h-32v-32h32zM208 208v32h-32v-32h32zM272 16v96h-32v-96h32zM272 144v32h-32v-32h32zM272 208v32h-32v-32h32zM272 288v80h-224v-80h224z" />
    <glyph glyph-name="uniF117" unicode="&#xf117;" 
d="M112 320c-18 0 -32 14 -32 32v32c0 18 14 32 32 32s32 -14 32 -32v-32c0 -18 -14 -32 -32 -32zM336 320c-18 0 -32 14 -32 32v32c0 18 14 32 32 32s32 -14 32 -32v-32c0 -18 -14 -32 -32 -32zM440 384c4 0 8 -4 8 -8v-400c0 -4 -4 -8 -8 -8h-432c-4 0 -8 4 -8 8v400
c0 4 4 8 8 8h56v-41c0 -22 24 -39 48 -39s48 17 48 39v41h128v-41c0 -22 25 -39 49 -39s47 17 47 39v41h56zM400 16v256h-352v-256h352z" />
    <glyph glyph-name="uniF118" unicode="&#xf118;" horiz-adv-x="416" 
d="M382 301c18 0 34 -14 34 -33v-202c0 -19 -16 -34 -34 -34h-348c-19 0 -34 15 -34 34v202c0 19 15 33 34 33h69l39 40v0c6 7 15 11 25 11h84c9 0 17 -4 23 -10v0v0v0l41 -41h67zM208 82c51 0 92 42 92 93s-41 93 -92 93s-92 -42 -92 -93s41 -93 92 -93zM376 248
c8 0 14 6 14 14s-6 14 -14 14s-14 -6 -14 -14s6 -14 14 -14zM208 245c38 0 70 -31 70 -70s-32 -70 -70 -70c-39 0 -70 31 -70 70s31 70 70 70z" />
    <glyph glyph-name="uniF119" unicode="&#xf119;" 
d="M420 352c16 0 28 -12 28 -28v0v-264v0c0 -16 -12 -28 -28 -28h-392c-16 0 -28 12 -28 28v0v0v264v0v0c0 16 12 28 28 28h392zM45 320c-7 0 -12 -5 -13 -12v-20h384v20c-1 7 -6 12 -13 12h-358zM403 64c7 0 12 5 13 12v116h-384v-116c1 -7 6 -12 13 -12h358zM64 128v16
h192v-16h-192zM64 96v16h96v-16h-96zM320 96v48h64v-48h-64z" />
    <glyph glyph-name="uniF11A" unicode="&#xf11a;" horiz-adv-x="416" 
d="M76 48c-42 0 -76 31 -76 71v209c0 40 34 72 76 72h264c42 0 76 -32 76 -72v-209c0 -40 -34 -71 -76 -71h-4v-64s-79 54 -86 59s-7 5 -21 5h-153zM304 256c-18 0 -32 -14 -32 -32s14 -32 32 -32s32 14 32 32s-14 32 -32 32zM208 256c-18 0 -32 -14 -32 -32s14 -32 32 -32
s32 14 32 32s-14 32 -32 32zM112 256c-18 0 -32 -14 -32 -32s14 -32 32 -32s32 14 32 32s-14 32 -32 32z" />
    <glyph glyph-name="uniF11B" unicode="&#xf11b;" horiz-adv-x="416" 
d="M76 48c-42 0 -76 31 -76 71v209c0 40 34 72 76 72h264c42 0 76 -32 76 -72v-209c0 -40 -34 -71 -76 -71h-4v-64s-79 54 -86 59s-7 5 -21 5h-153z" />
    <glyph glyph-name="uniF11C" unicode="&#xf11c;" horiz-adv-x="416" 
d="M246 82l26 -18c-4 -21 -29 -32 -52 -32h-90c-8 0 -11 -2 -13 -3l-53 -45v48h-16c-26 0 -48 16 -48 41v129c0 25 20 45 46 45h2v-101c0 -33 29 -59 64 -59h117c10 0 14 -3 17 -5zM353 400c35 0 63 -27 63 -60v-168c0 -33 -28 -60 -63 -60h-17v-64l-75 60c-2 2 -7 4 -17 4
h-101c-35 0 -63 27 -63 60v98v70c0 33 21 60 56 60h217z" />
    <glyph glyph-name="uniF11D" unicode="&#xf11d;" horiz-adv-x="416" 
d="M208 -1c-115 0 -208 89 -208 200s93 201 208 201s208 -90 208 -201c0 -40 -12 -77 -33 -108c-1 -1 -2 -3 -3 -4v0c-2 -4 -4 -10 -4 -15l22 -88l-84 31c-4 2 -8 2 -12 2s-7 -1 -11 -2v0c-1 0 -1 -1 -2 -1c-25 -10 -52 -15 -81 -15zM304 224c-18 0 -32 -14 -32 -32
s14 -32 32 -32s32 14 32 32s-14 32 -32 32zM208 224c-18 0 -32 -14 -32 -32s14 -32 32 -32s32 14 32 32s-14 32 -32 32zM112 224c-18 0 -32 -14 -32 -32s14 -32 32 -32s32 14 32 32s-14 32 -32 32z" />
    <glyph glyph-name="uniF11E" unicode="&#xf11e;" horiz-adv-x="416" 
d="M208 -1c-115 0 -208 89 -208 200s93 201 208 201s208 -90 208 -201c0 -40 -12 -77 -33 -108c-1 -1 -2 -3 -3 -4v0c-2 -4 -4 -10 -4 -15l22 -88l-84 31c-4 2 -8 2 -12 2s-7 -1 -11 -2v0c-1 0 -1 -1 -2 -1c-25 -10 -52 -15 -81 -15z" />
    <glyph glyph-name="uniF11F" unicode="&#xf11f;" horiz-adv-x="416" 
d="M25 57c-1 1 0 2 -1 3c-15 22 -24 49 -24 77c0 42 19 80 49 106c-2 -11 -4 -22 -4 -34c0 -92 78 -168 174 -168c15 0 30 2 44 6c-27 -32 -69 -53 -115 -53c-20 0 -40 5 -58 12h-1v0c-2 1 -5 2 -8 2s-6 -1 -9 -2l-56 -22l12 63c0 4 -1 7 -3 10v0zM242 400
c96 0 174 -76 174 -168c0 -33 -11 -64 -28 -90c-1 -1 -1 -2 -2 -3v0c-2 -4 -3 -8 -3 -12l17 -74l-69 26c-3 1 -6 2 -10 2c-3 0 -6 -1 -9 -2v0l-2 -1c-8 -3 -16 -5 -24 -7c-14 -4 -29 -6 -44 -6c-96 0 -173 75 -173 167c0 12 1 24 3 35c16 76 86 133 170 133z" />
    <glyph glyph-name="uniF120" unicode="&#xf120;" 
d="M224 416c124 0 224 -100 224 -224s-100 -224 -224 -224s-224 100 -224 224s100 224 224 224zM339 267c1 1 1 2 1 3s0 3 -1 4l-31 24c-1 1 -3 1 -4 1s-2 0 -3 -1l-111 -143s-44 42 -45 43s-4 3 -6 3s-3 -2 -4 -3l-25 -25l-1 -1c-1 -1 -1 -3 -1 -4s0 -2 1 -3l2 -1
s78 -75 79 -76s3 -3 5 -3s4 2 5 3z" />
    <glyph glyph-name="uniF121" unicode="&#xf121;" horiz-adv-x="416" 
d="M400 376c17 -13 22 -39 9 -57l-207 -302c-13 -18 -37 -22 -54 -9s-137 147 -137 147c-15 16 -15 42 1 58s40 15 55 -2l99 -107l180 263c13 18 37 22 54 9z" />
    <glyph glyph-name="uniF122" unicode="&#xf122;" horiz-adv-x="416" 
d="M414 338c1 -2 2 -4 2 -6s-1 -4 -2 -6l-249 -320c-2 -2 -5 -6 -9 -6s-8 3 -10 5s-141 136 -141 136l-3 3c-1 2 -2 4 -2 6s1 3 2 5l2 2c14 15 42 44 44 46s4 6 8 6s8 -4 10 -6s80 -78 80 -78l200 257c2 2 4 2 6 2s5 -1 7 -2z" />
    <glyph glyph-name="uniF123" unicode="&#xf123;" 
d="M224 150v0v0l174 167c4 4 12 4 16 0l31 -30c4 -4 4 -12 0 -16l-213 -204c-2 -2 -5 -3 -8 -3s-6 1 -8 3l-213 204c-4 4 -4 12 0 16l31 30c4 4 12 4 16 0z" />
    <glyph glyph-name="uniF124" unicode="&#xf124;" horiz-adv-x="256" 
d="M86 192l167 -174c4 -4 4 -12 0 -16l-30 -31c-4 -4 -12 -4 -16 0l-204 213c-2 2 -3 5 -3 8s1 6 3 8l204 213c4 4 12 3 16 -1l30 -30c4 -4 4 -12 0 -16l-167 -174v0v0z" />
    <glyph glyph-name="uniF125" unicode="&#xf125;" horiz-adv-x="256" 
d="M170 192v0v0l-167 174c-4 4 -4 12 0 16l30 30c4 4 12 5 16 1l204 -213c2 -2 3 -5 3 -8s-1 -6 -3 -8l-204 -213c-4 -4 -12 -4 -16 0l-30 31c-4 4 -4 12 0 16z" />
    <glyph glyph-name="uniF126" unicode="&#xf126;" 
d="M224 234l-174 -167c-4 -4 -12 -4 -16 0l-31 30c-4 4 -4 12 0 16l213 204c2 2 5 3 8 3s6 -1 8 -3l213 -204c4 -4 4 -12 0 -16l-31 -30c-4 -4 -12 -4 -16 0l-174 167v0v0z" />
    <glyph glyph-name="uniF127" unicode="&#xf127;" horiz-adv-x="352" 
d="M80 288c2 20 10 35 28 40l1 1c12 3 21 7 21 20v21c0 26 20 46 46 46s46 -20 46 -46v-21c0 -13 9 -18 21 -21h1c18 -5 26 -20 28 -40h-192zM176 384c-8 0 -14 -6 -14 -14s6 -14 14 -14s14 6 14 14s-6 14 -14 14zM325 385c15 0 27 -13 27 -29v-360c0 -16 -12 -28 -27 -28
h-149h-149c-15 0 -27 12 -27 28v360c0 16 12 29 27 29h74v-15c0 -11 -9 -18 -19 -18h-37c-7 0 -13 -5 -13 -12v-328c0 -6 6 -12 12 -12h264c6 0 12 6 12 12v328c0 7 -6 12 -13 12h-37c-10 0 -19 7 -19 18v15h74zM64 240v16h112v-16h-112zM64 144v16h160v-16h-160zM64 48v16
h129v-16h-129zM64 96v16h176v-16h-176zM64 192v16h208v-16h-208z" />
    <glyph glyph-name="uniF26E" unicode="&#xf26e;" 
d="M224 416c124 0 224 -100 224 -224s-100 -224 -224 -224s-224 100 -224 224s100 224 224 224zM393 283c-2 3 -3 6 -5 9zM324 356c-3 2 -6 3 -9 5zM133 361c-3 -2 -6 -3 -9 -5zM60 292c-2 -3 -3 -6 -5 -9zM55 101c2 -3 3 -6 5 -9zM124 28c3 -2 6 -3 9 -5zM315 23
c3 2 6 3 9 5zM360 56c10 10 18 21 26 33l-27 16l8 14l27 -16c13 25 21 52 22 81h-32v16h32c-1 29 -9 56 -22 81l-28 -16l-8 14l28 16c-8 12 -16 23 -26 33s-21 18 -33 26l-16 -27l-14 8l16 27c-25 13 -52 21 -81 22v-32h-16v32c-29 -1 -56 -9 -81 -22l16 -28l-14 -8l-16 28
c-12 -8 -23 -16 -33 -26s-18 -21 -26 -33l27 -16l-8 -14l-27 16c-13 -25 -21 -52 -22 -81h32v-16h-32c1 -29 9 -56 22 -81l28 16l8 -14l-28 -16c8 -12 16 -23 26 -33s21 -18 33 -26l16 27l14 -8l-16 -27c25 -13 52 -21 81 -22v32h16v-32c29 1 56 9 81 22l-16 27l14 8l16 -27
c12 8 23 16 33 26zM393 101l-5 -9c2 3 3 6 5 9zM368 199v-16h-113c-4 -13 -17 -23 -31 -23c-7 0 -15 3 -20 7l-70 -71l-6 6l71 70c-4 6 -7 13 -7 20c0 12 6 22 16 28v84h32v-84c8 -4 13 -12 15 -21h113z" />
    <glyph glyph-name="uniF128" unicode="&#xf128;" 
d="M224 415c124 0 224 -100 224 -224s-100 -224 -224 -224s-224 100 -224 224s100 224 224 224zM332 116l-75 75l76 75c3 3 3 9 0 12l-22 21c-2 2 -4 3 -6 3s-3 -1 -5 -3l-76 -74l-76 74c-2 2 -3 3 -5 3s-4 -1 -6 -3l-21 -21c-3 -3 -3 -9 0 -12l76 -75l-76 -76
c-2 -1 -2 -3 -2 -5s0 -4 2 -6l21 -22c2 -2 4 -2 6 -2s4 0 6 2l75 76l76 -75c2 -2 3 -3 5 -3s4 1 6 3l21 21c2 1 3 4 3 6s-1 4 -3 6z" />
    <glyph glyph-name="uniF129" unicode="&#xf129;" horiz-adv-x="384" 
d="M374 61c14 -14 14 -37 0 -51s-37 -14 -51 0l-131 131l-131 -131c-14 -14 -36 -14 -50 0s-14 37 0 51l130 131l-130 131c-14 14 -14 37 0 51s36 14 50 0l131 -131l131 131c14 14 37 14 51 0s14 -37 0 -51l-131 -131z" />
    <glyph glyph-name="uniF12A" unicode="&#xf12a;" horiz-adv-x="384" 
d="M380 61c3 -3 4 -6 4 -10s-1 -7 -4 -10l-38 -37c-3 -3 -5 -4 -9 -4s-7 1 -10 4l-131 131l-131 -131c-3 -3 -5 -4 -9 -4s-7 1 -10 4l-38 37c-3 3 -4 6 -4 10s1 7 4 10l132 131l-132 130c-5 5 -5 15 0 20l37 38c3 2 6 4 10 4s7 -1 10 -4l131 -130l131 130c3 2 6 4 10 4
s7 -1 10 -4l37 -38c5 -5 5 -14 0 -19l-132 -130z" />
    <glyph glyph-name="uniF12B" unicode="&#xf12b;" 
d="M366 215c45 0 82 -38 82 -84s-37 -83 -82 -83v0h-276c-49 0 -90 41 -90 91c0 40 26 74 61 86c5 29 29 51 59 51c10 0 18 -3 26 -7c19 40 59 67 105 67c64 0 115 -53 115 -118v-3z" />
    <glyph glyph-name="uniF26F" unicode="&#xf26f;" horiz-adv-x="384" 
d="M267 164l-63 -63v0l-2 -1v0l-1 -1v0l-1 -1v0l-2 -1v0h-1v0h-1c-1 0 -3 -1 -4 -1s-3 1 -4 1h-1v0h-1v0l-2 1v0l-1 1v0c-1 0 -2 1 -3 2v0l-63 63c-6 6 -6 17 0 23s18 6 24 0l35 -35v119c0 9 7 17 16 17s16 -8 16 -17v-118l35 34c6 6 18 6 24 0s6 -17 0 -23zM272 80
c-4 0 -8 2 -11 5c-6 6 -6 16 0 22l84 85l-84 85c-6 6 -6 16 0 22s16 6 22 0l96 -96c6 -6 6 -16 0 -22l-96 -96c-3 -3 -7 -5 -11 -5zM112 80c-4 0 -8 2 -11 5l-96 96c-6 6 -6 16 0 22l96 96c6 6 16 6 22 0s6 -16 0 -22l-84 -85l84 -85c6 -6 6 -16 0 -22c-3 -3 -7 -5 -11 -5z
" />
    <glyph glyph-name="uniF270" unicode="&#xf270;" horiz-adv-x="384" 
d="M272 80c-4 0 -8 2 -11 5c-6 6 -6 16 0 22l84 85l-84 85c-6 6 -6 16 0 22s16 6 22 0l96 -96c6 -6 6 -16 0 -22l-96 -96c-3 -3 -7 -5 -11 -5zM112 80c-4 0 -8 2 -11 5l-96 96c-6 6 -6 16 0 22l96 96c6 6 16 6 22 0s6 -16 0 -22l-84 -85l84 -85c6 -6 6 -16 0 -22
c-3 -3 -7 -5 -11 -5zM96 192c0 16 8 24 24 24s24 -8 24 -24s-8 -24 -24 -24s-24 8 -24 24zM168 192c0 16 8 24 24 24s24 -8 24 -24s-8 -24 -24 -24s-24 8 -24 24zM240 192c0 16 8 24 24 24s24 -8 24 -24s-8 -24 -24 -24s-24 8 -24 24z" />
    <glyph glyph-name="uniF271" unicode="&#xf271;" horiz-adv-x="320" 
d="M208 80c-4 0 -8 2 -11 5c-6 6 -6 16 0 22l84 85l-84 85c-6 6 -6 16 0 22s16 6 22 0l96 -96c6 -6 6 -16 0 -22l-96 -96c-3 -3 -7 -5 -11 -5zM112 80c-4 0 -8 2 -11 5l-96 96c-6 6 -6 16 0 22l96 96c6 6 16 6 22 0s6 -16 0 -22l-84 -85l84 -85c6 -6 6 -16 0 -22
c-3 -3 -7 -5 -11 -5z" />
    <glyph glyph-name="uniF272" unicode="&#xf272;" horiz-adv-x="384" 
d="M319 191c37 -7 65 -40 65 -79c0 -20 -8 -39 -21 -54c-15 -17 -37 -26 -61 -26c-8 0 -17 1 -25 3c-6 1 -10 3 -15 5c-11 -15 -23 -25 -32 -33v0c-5 -5 -12 -7 -19 -7h-102c-7 0 -14 2 -19 7v0c-17 15 -41 36 -62 86s-28 91 -28 111s3 20 16 20h101c-5 17 -37 19 -37 46
c0 17 15 32 28 37c-2 -8 -3 -14 -3 -21c0 -19 39 -30 39 -53c0 -3 0 -6 -1 -9h56c1 5 2 10 2 14c0 36 -56 36 -56 84c0 28 21 55 47 62c-4 -14 -9 -23 -9 -35c0 -32 57 -50 57 -88c0 -13 -5 -25 -12 -37h76c13 0 16 0 16 -20c0 -4 0 -8 -1 -13zM302 64c33 0 50 25 50 48
s-17 43 -39 47c-4 -19 -11 -42 -21 -66c-4 -9 -8 -17 -12 -25c6 -3 13 -4 22 -4z" />
    <glyph glyph-name="uniF273" unicode="&#xf273;" 
d="M224 416c124 0 224 -100 224 -224s-100 -224 -224 -224s-224 100 -224 224c0 39 10 76 27 108c-16 12 -27 30 -27 52c0 35 29 64 64 64c22 0 40 -11 52 -27c32 17 69 27 108 27zM32 352c0 -10 5 -20 13 -26c13 17 28 32 45 45c-6 8 -16 13 -26 13c-18 0 -32 -14 -32 -32z
M360 56c36 36 56 85 56 136s-20 100 -56 136s-85 56 -136 56s-100 -20 -136 -56s-56 -85 -56 -136s20 -100 56 -136s85 -56 136 -56s100 20 136 56zM320 320c0 0 -54 -130 -72 -152s-120 -104 -120 -104s54 132 72 152s120 104 120 104z" />
    <glyph glyph-name="uniF12C" unicode="&#xf12c;" horiz-adv-x="384" 
d="M379 348c7 -7 7 -18 0 -25l-32 -31l-55 55l31 32c7 7 18 7 25 0zM282 338l55 -55l-177 -173l-64 -14l14 64zM320 192l32 32v-201c0 -13 -10 -23 -23 -23h-306c-13 0 -23 10 -23 23v306c0 13 10 23 23 23h201l-32 -32h-149c-6 0 -11 -5 -11 -10v-268s4 -10 10 -10h269
s9 5 9 10v150z" />
    <glyph glyph-name="uniF274" unicode="&#xf274;" horiz-adv-x="352" 
d="M0 32v64h64v-64h-64zM96 32v128h64v-128h-64zM192 32v224h64v-224h-64zM288 32v320h64v-320h-64z" />
    <glyph glyph-name="uniF275" unicode="&#xf275;" 
d="M224 416c124 0 224 -100 224 -224s-100 -224 -224 -224s-224 100 -224 224s100 224 224 224zM360 56c36 36 56 85 56 136s-20 100 -56 136s-85 56 -136 56v-384c51 0 100 20 136 56z" />
    <glyph glyph-name="uniF12D" unicode="&#xf12d;" 
d="M224 289c54 0 97 -43 97 -97s-43 -97 -97 -97s-97 43 -97 97s43 97 97 97zM224 148c24 0 44 20 44 44s-20 44 -44 44s-44 -20 -44 -44s20 -44 44 -44zM224 416c124 0 224 -100 224 -224s-100 -224 -224 -224s-224 100 -224 224s100 224 224 224zM224 69
c68 0 123 55 123 123s-55 123 -123 123s-123 -55 -123 -123s55 -123 123 -123z" />
    <glyph glyph-name="uniF12E" unicode="&#xf12e;" horiz-adv-x="288" 
d="M286 279c1 -3 2 -6 2 -10v-245c0 -13 -10 -24 -22 -24h-243c-12 0 -23 11 -23 24v336c0 13 11 24 23 24h160c3 0 6 0 9 -2c2 -1 5 -3 7 -5l84 -92c2 -2 2 -4 3 -6zM48 269v-10c0 -1 1 -3 3 -3h71c2 0 3 2 3 3v10c0 2 -1 3 -3 3h-71c-2 0 -3 -1 -3 -3zM48 141v-10
c0 -1 1 -3 3 -3h123c2 0 2 2 2 3v10c0 2 0 3 -2 3h-123c-2 0 -3 -1 -3 -3zM208 67v10c0 2 0 3 -2 3h-155c-2 0 -3 -1 -3 -3v-10c0 -1 1 -3 3 -3h155c2 0 2 2 2 3zM240 195v10c0 2 0 3 -2 3h-187c-2 0 -3 -1 -3 -3v-10c0 -1 1 -3 3 -3h187c2 0 2 2 2 3zM193 270h60l-71 78
v-66c0 -6 5 -12 11 -12z" />
    <glyph glyph-name="uniF12F" unicode="&#xf12f;" horiz-adv-x="288" 
d="M287 279c1 -3 1 -5 1 -9v-244c0 -13 -9 -26 -21 -26h-243c-12 0 -24 13 -24 26v335c0 13 12 23 24 23h160c3 0 6 0 9 -2c2 -1 5 -2 7 -4l83 -92c2 -2 3 -4 4 -7zM193 337v-63h58zM32 32h224v210h-67c-15 0 -28 13 -28 28v82h-129v-320z" />
    <glyph glyph-name="uniF130" unicode="&#xf130;" horiz-adv-x="512" 
d="M0 272v32h512v-32h-512zM0 176v32h512v-32h-512zM0 80v32h512v-32h-512z" />
    <glyph glyph-name="uniF276" unicode="&#xf276;" 
d="M308 321c-1 0 0 -1 -1 -1s-4 4 -3 5l1 1l1 1l2 1l1 1v1c0 1 -1 2 -1 3v2c1 1 2 1 3 1l1 -1l2 -1l1 -2c0 -1 1 -1 2 -1c2 -1 4 -2 5 -3c3 -3 5 -7 6 -11v-2c-2 -1 -3 -3 -5 -4c-1 -1 -2 -1 -3 -1c-2 0 -4 1 -5 2s-1 2 -1 3c0 2 -1 4 -1 6c0 1 -1 1 -1 1h-2s-1 -1 -2 -1z
M253 351l-1 1c0 1 0 4 1 4h1c4 1 6 3 10 4h1c1 0 2 -1 3 -2c2 -2 2 -3 0 -5v0l-1 -2c0 -1 -1 -2 -1 -3v-1h-1c-3 0 -6 1 -8 2c-2 0 -3 1 -4 2zM134 270h-5c-5 0 -10 1 -14 2h-3s-1 1 -2 1v1s1 2 2 3c1 0 1 1 2 1s2 1 3 1s2 0 3 -1l1 -1l1 -1c2 -1 4 -2 6 -2h5c1 0 1 -1 2 -1
h1l1 -1c0 -1 0 -2 -1 -2h-2zM144 263c0 0 1 -1 2 -1s1 -1 1 -1v-4h-1v0h-1c-2 1 -5 2 -7 2h-4h-3h-1v1v0c1 0 1 1 2 1l8 4v0l1 -1c1 -1 2 0 3 -1zM224 416c124 0 224 -100 224 -224s-100 -224 -224 -224s-224 100 -224 224s100 224 224 224zM88 56c11 -11 24 -20 37 -28
c-1 1 -3 2 -4 3l-7 7c-3 4 -4 9 -6 13v1c0 2 -1 4 -1 6c0 3 -2 7 -2 10v1c-1 1 -1 2 -1 3s-1 3 -1 4c0 3 1 5 1 8v3c0 3 1 5 1 8v2c-1 1 -1 3 -1 4v5s0 5 1 7c0 1 1 1 1 2v5c0 3 2 7 2 10v1c-2 1 -2 2 -3 3c-2 2 -2 4 -2 7c0 2 0 4 1 6v1h-1c-4 3 -8 6 -11 10
c-1 2 -2 4 -4 6l-3 3s-2 3 -2 4c-1 2 -1 4 -1 6v2c-1 2 -1 4 -1 6v8s1 4 2 6c0 1 1 1 2 2c2 2 3 5 5 7l3 6c1 1 2 2 2 4c1 2 1 4 1 6v3c0 2 -1 3 -3 4l-1 1c-2 1 -4 3 -6 4v1c-1 4 -2 5 -3 9c0 1 -1 3 -1 3c-2 1 -3 3 -5 4v2v3s1 3 1 4h-1c-3 1 -6 3 -9 5c-2 1 -3 2 -4 4
c-1 1 -2 3 -3 4c-1 2 -1 3 -1 5c0 3 2 7 2 10v2h-1v1v0c-19 -30 -29 -65 -29 -101c0 -51 20 -100 56 -136zM403 251c0 0 0 -1 1 -1v1c0 2 0 5 -1 7s-2 3 -3 4c0 0 -10 -6 -27 14s-24 16 -24 16s-2 -2 -2 -1h-1v0v-2c0 -1 -1 -2 -1 -4s-1 -6 -1 -8v-1h-1c-3 -1 -6 -1 -9 -2
c-2 0 -4 -1 -6 0s-3 2 -4 3c-2 2 -3 3 -4 5c-2 3 -4 7 -6 10v1v0c2 1 3 2 4 3h1c1 0 3 1 4 1c2 0 3 1 5 1h3c2 2 5 2 7 4v1c2 2 3 4 5 6l1 1l-1 1l-2 4v2c0 2 1 3 1 5v2c-3 0 -6 1 -9 1c-1 2 -3 5 -4 7h-1c-2 0 -3 1 -5 1h-1c-1 1 -2 2 -2 3c-1 2 -2 3 -2 5c-1 4 0 8 0 12v0
c3 0 7 1 10 1c-18 11 -38 20 -58 25v-1c-2 -4 -4 -6 -6 -10c-1 -1 -1 -2 -2 -2c-2 0 -4 -1 -6 -1s-2 0 -3 -1v-1c-2 -2 -4 -5 -6 -7c-3 -3 -6 -6 -9 -10v-1h-1v1c-2 1 -4 2 -5 4c-2 2 -3 4 -4 6c-2 4 -3 8 -3 12c0 1 1 1 1 1c1 3 2 7 3 10c0 1 1 1 1 2v1v2v0h-6h-3v0l4 -8
v-1h-1c-2 -1 -3 -3 -5 -4l-1 -1l-5 -5v0c0 1 -1 1 -2 2s-3 2 -5 3v1h-6l-2 -1c-1 0 -1 -1 -2 -1h-3c-2 0 -2 0 -3 2c0 1 -1 1 -2 1h-1l-2 -1l-3 -3s-2 -1 -3 -2l-1 -1l-6 -3v-1c0 -1 -1 -1 -1 -2v-6c0 -1 1 -2 1 -3c1 -2 1 -2 3 -2h2c1 1 3 1 4 2c2 1 3 2 4 3s3 2 3 4v1
c0 1 1 0 2 0v0h2c1 -1 3 -1 4 0c1 0 1 0 2 1l2 2s3 2 4 2c2 0 3 1 4 -1v-1l2 -2c1 0 1 -2 2 -2l2 -1c1 -1 1 -1 1 -2s-1 -1 -1 -2s-1 -2 -2 -3c0 -1 -1 -2 -1 -3l-1 -1c0 -1 0 -1 1 -1h1c1 0 2 1 3 1v0v-1c0 -2 -1 -4 -1 -6s-1 -3 -2 -5c0 -1 0 -1 -1 -2s-3 -2 -5 -2
c-1 0 -2 1 -3 1s-2 1 -2 1c-1 1 -1 1 -2 1h-3h-1c-1 0 -1 -1 -1 -2s-2 -1 -2 -2l-1 -1h-1c-2 0 -3 -1 -5 -1h-8h-1c-3 -1 -7 -2 -10 -3c-1 0 -1 -1 -1 -1c-1 -1 -2 -1 -3 -1c-1 -1 -3 -2 -4 -2h-3h-2l-1 1c-5 -6 -18 -6 -22 -12v-1c0 -2 -1 -3 -1 -5c0 -4 0 -8 -1 -12
c0 -1 -1 -1 -1 -2l-1 -1h-2l-1 1s-1 0 -1 1s-1 2 -1 3c-1 2 -1 3 -1 5c0 3 -2 4 -4 6c-1 1 -2 2 -3 2c-2 1 -5 1 -7 1c-1 0 -1 1 -2 1c-2 0 -4 -1 -6 -1c-8 -2 -13 -8 -18 -14v-1c-1 -3 -2 -5 -2 -8c0 -2 1 -4 1 -5c1 -2 2 -3 4 -3h5c1 0 2 1 3 1h2c1 0 1 -1 2 -2s0 -3 0 -4
s-1 -1 -1 -1c-1 -1 -1 -2 -2 -3s-2 -1 -3 -1s-1 -2 -1 -3s-1 -1 0 -2l1 -1s1 -1 2 -1v-2v-1v-10v-2c0 -3 2 -5 5 -7l1 -1c2 -1 3 -3 5 -3h5c2 0 3 1 5 3c1 1 1 2 2 3l1 1c1 1 3 2 4 2s2 0 3 -1l2 -2l2 -1c3 -1 5 -3 8 -4l1 -1c2 0 3 0 5 -1c4 -2 7 -4 10 -8c0 0 1 -1 2 -1
c7 -2 14 -7 19 -12c3 -3 5 -7 7 -11c0 -1 1 -3 1 -4l1 -1c2 -2 3 -3 4 -5s3 -5 4 -7v0s3 -1 4 -1c5 -1 10 -3 14 -6c4 -2 5 -4 8 -7c1 -1 2 -1 2 -3v-5c-1 -6 -4 -11 -10 -15c0 0 -1 0 -1 -1c-2 -5 -4 -11 -6 -16l-1 -1c-3 -4 -5 -7 -8 -11l-1 -1c-1 0 -1 -2 -2 -2
c-4 -2 -9 -3 -13 -4c-1 0 -1 -1 -1 -1c-2 -3 -5 -7 -8 -10v0c-1 -1 -2 -3 -3 -4c-2 -3 -3 -6 -5 -9c0 -1 -1 -2 -2 -2c-4 -3 -9 -6 -13 -9h-1l-7 -7c0 0 -1 -1 -1 -2c-1 -2 -2 -3 -3 -5s-1 -4 -2 -6l-1 -2s1 -1 1 -2c1 -6 3 -19 4 -25v-1c28 -15 59 -24 92 -24
c40 0 77 12 109 34c-1 1 -1 2 -1 3v2c0 2 1 3 2 5c2 3 2 7 4 10c1 3 4 6 5 9c0 1 1 3 1 4v2s-1 3 -1 4c0 2 -1 5 -1 7c-1 3 -1 5 0 8l3 6s2 4 4 6l1 1l4 4c2 2 2 3 3 5c1 3 2 6 1 9c0 2 -1 4 -2 6s-2 3 -2 5c-1 3 -1 7 0 10c0 1 2 3 2 4c1 2 1 3 2 5s1 3 1 5c0 3 0 6 -1 8v2
s-1 1 -2 1l-1 -1h-2l-1 -1c-1 0 -1 0 -2 1h-1c-1 1 -1 2 -2 2s-2 1 -3 1c-2 0 -5 1 -7 1c-4 0 -7 -1 -11 -1c-3 0 -7 0 -10 1s-5 3 -8 5c-4 2 -7 4 -10 7c-4 3 -7 7 -10 10l-1 1v1c0 2 -1 4 -1 6c0 4 1 7 2 11c1 5 1 10 3 15c1 2 1 3 1 5s1 3 1 5c0 1 -1 2 -1 3v0v2v1
c0 1 1 1 1 2c3 6 8 10 15 12l1 1c2 3 5 6 7 9c0 0 1 1 2 1c4 1 7 2 11 3c3 1 5 2 8 2s6 -1 8 -1c3 0 6 -1 8 -2h1h9c2 0 3 -1 5 -2c1 0 1 -1 2 -1s1 -1 2 -1c5 -4 9 -7 14 -11h2v0h9c2 0 4 -1 6 -1z" />
    <glyph glyph-name="uniF2BF" unicode="&#xf2bf;" 
d="M381 259l-250 -251l-91 91l251 250zM440 360c12 -12 11 -32 -2 -45l-45 -45l-91 91l45 45c13 13 33 14 45 2zM14 17l18 68l85 -85l-68 -18zM0 -32l9 32l23 -23z" />
    <glyph glyph-name="uniF277" unicode="&#xf277;" horiz-adv-x="320" 
d="M160 416c64 0 160 -133 160 -257s-64 -191 -160 -191s-160 67 -160 191s96 257 160 257z" />
    <glyph glyph-name="uniF131" unicode="&#xf131;" horiz-adv-x="320" 
d="M303 128h-286v0c-10 0 -17 7 -17 16c0 3 1 5 3 8l138 191c5 5 11 9 19 9s14 -4 19 -9l138 -190c2 -3 3 -6 3 -9c0 -9 -7 -16 -17 -16v0zM308 96c7 0 12 -5 12 -12v-40c0 -7 -5 -12 -12 -12h-296c-7 0 -12 5 -12 12v40c0 7 5 12 12 12h296z" />
    <glyph glyph-name="uniF132" unicode="&#xf132;" horiz-adv-x="416" 
d="M19 299c-4 2 -11 7 -13 11c-3 8 1 10 12 10h191h191c11 0 15 -2 12 -10c-2 -4 -9 -9 -13 -11c-11 -6 -163 -89 -169 -92s-12 -4 -21 -4s-15 1 -21 4s-158 86 -169 92zM408 295c9 4 8 -1 8 -5v-205c0 -9 -12 -21 -22 -21h-185h-185c-10 0 -24 12 -24 21v205s0 9 9 5
c8 -4 83 -56 132 -88l-83 -93c-2 -2 -2 -4 -1 -5s4 -1 6 1l98 83c15 -10 25 -16 27 -17c8 -4 14 -4 21 -4s13 0 21 4c2 1 12 7 27 17l98 -83c2 -2 5 -2 6 -1s0 3 -2 5l-82 93c49 32 123 84 131 88z" />
    <glyph glyph-name="uniF306" unicode="&#xf306;" 
d="M344 290c41 -27 76 -66 104 -100c-51 -54 -124 -135 -224 -135c-36 0 -65 8 -92 22l-77 -77l-23 23l71 71c-36 25 -68 61 -103 98c78 85 142 137 224 137c34 0 64 -9 92 -23l77 78l23 -23zM134 192c0 -19 6 -36 16 -51l27 27c-4 7 -5 15 -5 24c0 29 23 53 52 53h8
c-5 -6 -8 -13 -8 -21c0 -3 0 -5 1 -8l51 50c-15 11 -33 17 -52 17c-49 0 -90 -41 -90 -91zM224 101c49 0 90 41 90 91c0 19 -6 37 -16 52l-50 -51c3 -1 5 -1 8 -1c8 0 14 3 20 7v-7c0 -29 -23 -53 -52 -53c-9 0 -17 2 -24 6l-28 -27c15 -11 33 -17 52 -17z" />
    <glyph glyph-name="uniF133" unicode="&#xf133;" 
d="M224 320c99 0 172 -70 224 -129c-51 -50 -124 -127 -224 -127s-157 60 -224 128c78 79 142 128 224 128zM224 101c49 0 90 41 90 91s-41 91 -90 91s-90 -41 -90 -91s41 -91 90 -91zM224 224c0 -18 14 -32 32 -32c8 0 14 3 20 7v-7c0 -29 -23 -53 -52 -53s-52 24 -52 53
s23 53 52 53h8c-5 -6 -8 -13 -8 -21z" />
    <glyph glyph-name="uniF278" unicode="&#xf278;" horiz-adv-x="256" 
d="M160 164v-68h64v-64h-64v-64h-64v64h-64v64h64v68c-55 14 -96 64 -96 124c0 71 57 128 128 128s128 -57 128 -128c0 -60 -41 -110 -96 -124zM128 208c44 0 80 36 80 80s-36 80 -80 80s-80 -36 -80 -80s36 -80 80 -80z" />
    <glyph glyph-name="uniF134" unicode="&#xf134;" horiz-adv-x="384" 
d="M317 319c12 0 19 0 19 -20v-28h-288v28c0 20 8 20 20 20h249zM269 352c13 0 19 -1 19 -19h-192c0 18 7 19 20 19h153zM368 278c13 -8 17 -17 15 -41l-17 -184c-4 -21 -16 -21 -24 -21h-300c-8 0 -20 0 -24 21l-17 185c-3 26 1 31 15 40l15 10v-32h321v32z" />
    <glyph glyph-name="uniF135" unicode="&#xf135;" horiz-adv-x="416" 
d="M400 240c9 0 16 -7 16 -15v-210c0 -8 -7 -15 -16 -15h-384c-9 0 -16 7 -16 15v210c0 8 6 14 13 15c-2 2 -3 4 -4 7l-9 45c-2 8 5 16 13 18l370 74c8 2 16 -4 18 -12l9 -46c2 -8 -4 -16 -12 -18l-342 -68h344zM257 46l-20 58l51 36h-62l-20 58l-19 -58h-63l51 -36l-19 -58
l50 36z" />
    <glyph glyph-name="uniF279" unicode="&#xf279;" horiz-adv-x="384" 
d="M362 266c0 0 12 2 22 6c0 -16 -7 -32 -9 -36c-28 -50 -99 -123 -181 -84c-65 31 -92 30 -117 24c-1 0 -2 -1 -3 -1c-3 -1 -15 -5 -26 -1v197c0 16 14 31 33 35c39 7 106 5 148 -74c39 -74 97 -72 133 -66zM24 416c4 0 8 -4 8 -8v-432c0 -4 -4 -8 -8 -8h-16
c-4 0 -8 4 -8 8v432c0 4 4 8 8 8h16z" />
    <glyph glyph-name="uniF136" unicode="&#xf136;" 
d="M115 -4c-69 38 -115 112 -115 196c0 124 100 224 224 224c24 0 47 -4 68 -11c2 -1 3 -1 5 -2c12 -4 24 -9 35 -15v0c69 -38 116 -112 116 -196c0 -124 -100 -224 -224 -224c-24 0 -47 4 -68 11c-2 1 -3 1 -5 2c-12 4 -24 8 -35 14zM86 291c-20 -28 -32 -62 -32 -99
c0 -65 36 -121 90 -150c6 -3 13 -7 19 -9c2 -1 3 -1 5 -2c9 -3 19 -5 29 -7c9 -2 18 -2 27 -2c37 0 71 12 99 32l-52 53l36 40l55 -54c20 28 32 62 32 99c0 66 -37 123 -91 151c-6 3 -12 6 -18 8c-2 1 -3 1 -5 2c-9 3 -19 5 -29 7c-9 2 -18 2 -27 2c-37 0 -72 -12 -100 -32
l53 -52l-36 -41zM178 58l38 113h-85l139 155l-38 -113h85z" />
    <glyph glyph-name="uniF137" unicode="&#xf137;" horiz-adv-x="320" 
d="M0 160l224 256l-51 -192h147l-224 -256l51 192h-147z" />
    <glyph glyph-name="uniF138" unicode="&#xf138;" horiz-adv-x="384" 
d="M382 21c2 -4 3 -10 0 -14s-8 -7 -13 -7h-177h-178c-5 0 -9 3 -12 7s-2 10 0 14l118 199v150c0 8 6 14 14 14s15 -6 15 -14v-80c4 3 10 5 16 5c15 0 27 -12 27 -27s-12 -26 -27 -26c-6 0 -12 2 -16 5v-31c0 -2 -1 -4 -2 -6l-35 -59h72c-15 6 -26 20 -26 37
c0 23 19 42 43 42c15 0 27 -8 35 -19c-1 2 -1 3 -1 5v154c0 8 6 14 14 14s15 -6 15 -14v-150zM218 151h53l-31 54c2 -5 3 -11 3 -17c0 -17 -10 -31 -25 -37zM201 319c-12 0 -22 9 -22 21s10 21 22 21s22 -9 22 -21s-10 -21 -22 -21z" />
    <glyph glyph-name="uniF139" unicode="&#xf139;" horiz-adv-x="384" 
d="M366 256c18 0 19 -7 18 -18l-12 -186c-1 -11 -3 -20 -21 -20h-317c-18 0 -20 9 -21 20l-13 184c-1 11 0 20 18 20h348zM362 305l2 -33h-344c0 6 4 46 6 63c2 18 8 17 25 17h75c28 0 23 0 37 -15c16 -18 19 -17 41 -17h143c11 0 15 -3 15 -15z" />
    <glyph glyph-name="uniF2C0" unicode="&#xf2c0;" horiz-adv-x="320" 
d="M320 368v-64h-48v-48h-64v48h-48v64h48v48h64v-48h48zM208 208h64v-5v0c0 -43 -7 -70 -38 -95c-23 -19 -51 -20 -75 -22c-9 -1 -18 -2 -26 -3c-6 -1 -13 -5 -20 -10c9 -11 15 -25 15 -41c0 -35 -29 -64 -64 -64s-64 29 -64 64c0 24 13 44 32 55v210c-19 11 -32 31 -32 55
c0 35 29 64 64 64s64 -29 64 -64c0 -24 -13 -44 -32 -55v-160c8 4 18 7 27 9c11 2 21 2 31 3c17 1 33 3 40 9c10 8 14 11 14 50zM64 384c-18 0 -32 -14 -32 -32s14 -32 32 -32s32 14 32 32s-14 32 -32 32zM64 0c18 0 32 14 32 32s-14 32 -32 32s-32 -14 -32 -32
s14 -32 32 -32z" />
    <glyph glyph-name="uniF27A" unicode="&#xf27a;" horiz-adv-x="128" 
d="M78 299v0v0v0zM128 282c0 -26 -15 -48 -37 -58c-12 -6 -11 -11 -11 -11s16 -200 16 -213s-3 -18 -9 -24s-15 -8 -23 -8v0v0c-8 0 -16 2 -22 8s-10 13 -10 24s16 213 16 213s0 6 -11 11c-22 10 -37 32 -37 58c0 43 15 93 24 134h8v-117c0 -6 3 -11 9 -11s9 4 10 10v1
l9 117h8l10 -117v-1c1 -6 3 -10 9 -10s9 5 9 11v117h8v0c9 -40 24 -91 24 -134z" />
    <glyph glyph-name="uniF13A" unicode="&#xf13a;" horiz-adv-x="384" 
d="M224 150c-102 0 -171 -9 -224 -102c0 0 37 208 224 208v80l160 -144l-160 -134v92z" />
    <glyph glyph-name="uniF13B" unicode="&#xf13b;" 
d="M0 193c0 65 50 111 111 111h226c61 0 111 -46 111 -111s-50 -113 -111 -113h-226c-61 0 -111 48 -111 113zM373 215c-11 0 -20 -9 -20 -19s9 -19 20 -19s19 9 19 19s-8 19 -19 19zM330 256c-11 0 -19 -9 -19 -19s8 -19 19 -19s20 9 20 19s-9 19 -20 19zM330 173
c-11 0 -19 -8 -19 -19c0 -10 8 -19 19 -19s20 9 20 19c0 11 -9 19 -20 19zM288 215c-11 0 -20 -9 -20 -19s9 -19 20 -19s19 9 19 19s-8 19 -19 19zM56 203v-22c0 -3 2 -5 5 -5v0h35v-38v-2c0 -3 2 -4 5 -4h22c3 0 5 2 5 5v0v39h37h1c3 0 5 2 5 5v22c0 3 -2 5 -5 5h-1h-37v38
v1c0 3 -2 5 -5 5h-22c-3 0 -5 -2 -5 -5v-1v-38h-35h-1c-2 0 -4 -2 -4 -5z" />
    <glyph glyph-name="uniF13C" unicode="&#xf13c;" 
d="M346 348c45 -13 67 -61 88 -149s18 -152 -7 -164s-53 15 -80 49c-24 27 -33 28 -123 28s-100 -2 -122 -28c-27 -34 -56 -61 -81 -49s-28 76 -7 164s43 136 88 149s59 -12 122 -12s77 25 122 12zM96 184c22 0 40 18 40 40s-18 40 -40 40s-39 -18 -39 -40s17 -40 39 -40z
M278 204c11 0 19 9 19 20s-8 19 -19 19s-20 -8 -20 -19s9 -20 20 -20zM320 162c11 0 19 8 19 19s-8 20 -19 20s-19 -9 -19 -20s8 -19 19 -19zM320 247c11 0 19 8 19 19s-8 20 -19 20s-19 -9 -19 -20s8 -19 19 -19zM362 204c11 0 20 9 20 20s-9 19 -20 19s-19 -8 -19 -19
s8 -20 19 -20z" />
    <glyph glyph-name="uniF13D" unicode="&#xf13d;" horiz-adv-x="384" 
d="M347 192c0 -24 15 -43 37 -56c-4 -13 -10 -26 -16 -38c-25 6 -45 -3 -62 -20s-22 -37 -16 -62c-12 -6 -25 -12 -38 -16c-13 22 -36 37 -60 37s-47 -15 -60 -37c-13 4 -27 10 -39 16c6 25 2 45 -15 62s-37 21 -62 15c-6 12 -12 26 -16 39c22 13 37 36 37 60s-15 43 -37 56
c4 13 9 26 16 38c25 -6 45 3 62 20s21 37 15 62c12 6 26 12 39 16c13 -22 36 -37 60 -37s47 15 60 37c13 -4 27 -10 39 -16c-6 -25 -2 -45 15 -62s37 -26 62 -20c6 -12 12 -25 16 -38c-22 -13 -37 -32 -37 -56zM192 94c54 0 98 44 98 98s-44 98 -98 98s-98 -44 -98 -98
s44 -98 98 -98z" />
    <glyph glyph-name="uniF13E" unicode="&#xf13e;" horiz-adv-x="384" 
d="M384 154h-44c-4 -14 -10 -27 -17 -39l32 -32l-54 -54l-33 32c-12 -7 -24 -11 -38 -15v-46h-76v46c-13 4 -26 8 -38 15l-33 -32l-54 54l32 32c-7 12 -13 25 -17 39h-44v76h43c4 14 9 29 16 41l-30 30l54 54l29 -29c13 8 27 13 42 17v41h76v-41c15 -4 29 -9 42 -17l29 29
l54 -54l-30 -30c7 -12 13 -27 16 -41h43v-76zM192 138c30 0 54 24 54 54s-24 54 -54 54s-54 -24 -54 -54s24 -54 54 -54z" />
    <glyph glyph-name="uniF13F" unicode="&#xf13f;" horiz-adv-x="320" 
d="M64 295c0 -4 -3 -7 -7 -7h-50c-4 0 -7 3 -7 7v50c0 4 3 7 7 7h50c4 0 7 -3 7 -7v-50zM192 295c0 -4 -3 -7 -7 -7h-50c-4 0 -7 3 -7 7v50c0 4 3 7 7 7h50c4 0 7 -3 7 -7v-50zM320 295c0 -4 -3 -7 -7 -7h-50c-4 0 -7 3 -7 7v50c0 4 3 7 7 7h50c4 0 7 -3 7 -7v-50zM64 167
c0 -4 -3 -7 -7 -7h-50c-4 0 -7 3 -7 7v50c0 4 3 7 7 7h50c4 0 7 -3 7 -7v-50zM192 167c0 -4 -3 -7 -7 -7h-50c-4 0 -7 3 -7 7v50c0 4 3 7 7 7h50c4 0 7 -3 7 -7v-50zM320 167c0 -4 -3 -7 -7 -7h-50c-4 0 -7 3 -7 7v50c0 4 3 7 7 7h50c4 0 7 -3 7 -7v-50zM64 39
c0 -4 -3 -7 -7 -7h-50c-4 0 -7 3 -7 7v50c0 4 3 7 7 7h50c4 0 7 -3 7 -7v-50zM192 39c0 -4 -3 -7 -7 -7h-50c-4 0 -7 3 -7 7v50c0 4 3 7 7 7h50c4 0 7 -3 7 -7v-50zM320 39c0 -4 -3 -7 -7 -7h-50c-4 0 -7 3 -7 7v50c0 4 3 7 7 7h50c4 0 7 -3 7 -7v-50z" />
    <glyph glyph-name="uniF27B" unicode="&#xf27b;" horiz-adv-x="320" 
d="M314 416c3 0 6 -3 6 -6v-84c0 -3 -3 -6 -6 -6h-52c-3 0 -6 3 -6 6v14c-6 5 -16 9 -22 7c-7 -2 -23 -13 -30 -25s-6 -28 -6 -66l8 -2c5 -1 7 -6 7 -9v-70c0 -95 11 -201 11 -201c0 -3 -3 -6 -6 -6h-84c-3 0 -6 3 -6 6c0 0 11 106 11 201v70c0 3 3 8 7 9l7 2
c0 43 -5 58 -22 74c-18 16 -41 19 -63 17s-51 -35 -58 -45s-10 2 -10 11c1 16 22 60 72 81s91 22 102 22s27 -1 38 -3s16 -18 26 -18c7 0 14 5 18 9v6c0 3 3 6 6 6h52z" />
    <glyph glyph-name="uniF140" unicode="&#xf140;" horiz-adv-x="384" 
d="M383 210c3 -51 -3 -130 -13 -162c-20 -67 -40 -80 -72 -80s-58 27 -58 59v106c0 33 23 59 53 59c18 0 34 -9 44 -24c0 0 11 7 13 22s4 34 -5 64s-21 19 -36 38c-2 3 -5 7 -8 10l-10 10c-2 2 -3 3 -5 4c-11 9 -21 17 -34 23c-19 9 -39 13 -60 13s-42 -4 -61 -13
c-13 -6 -22 -14 -33 -23c-2 -1 -3 -2 -5 -4l-10 -10s-6 -7 -8 -10c-15 -19 -27 -8 -36 -38c-9 -31 -7 -49 -5 -64s13 -22 13 -22c10 15 26 24 44 24c30 0 53 -27 53 -59v-106c0 -32 -26 -59 -58 -59s-52 13 -72 80c-10 32 -16 111 -13 162c3 60 22 108 56 145v0
c8 8 15 16 24 23s19 13 29 18c25 13 53 20 82 20s57 -7 82 -20c10 -5 19 -11 28 -18s17 -15 25 -23v0c34 -37 53 -85 56 -145z" />
    <glyph glyph-name="uniF141" unicode="&#xf141;" horiz-adv-x="416" 
d="M382 352c46 -47 46 -124 0 -171l-174 -181l-174 181c-46 47 -46 124 0 171c40 42 107 42 147 0l27 -28l28 28c40 42 106 42 146 0z" />
    <glyph glyph-name="uniF27C" unicode="&#xf27c;" 
d="M224 416c124 0 224 -100 224 -224s-100 -224 -224 -224s-224 100 -224 224s100 224 224 224zM402 264c-10 24 -23 45 -42 64s-41 32 -65 42l-19 -61c14 -6 27 -15 38 -26s21 -24 27 -38zM224 96c53 0 96 43 96 96s-43 96 -96 96s-96 -43 -96 -96s43 -96 96 -96zM88 328
c-19 -19 -32 -41 -42 -65l61 -19c6 14 15 27 26 38s24 21 38 27l-19 61c-24 -10 -45 -23 -64 -42zM46 120c10 -24 23 -45 42 -64s41 -32 65 -42l19 61c-14 6 -27 15 -38 26s-21 24 -27 38zM360 56c19 19 32 41 42 65l-61 19c-6 -14 -15 -27 -26 -38s-24 -21 -38 -27l19 -61
c24 10 45 23 64 42z" />
    <glyph glyph-name="uniF142" unicode="&#xf142;" 
d="M224 416c124 0 224 -100 224 -224s-100 -224 -224 -224s-224 100 -224 224s100 224 224 224zM244 89c1 18 -12 31 -29 31c-16 0 -30 -11 -30 -29s12 -30 28 -30c17 0 31 10 31 28zM293 217c7 10 12 22 12 36c0 23 -9 40 -25 52c-17 13 -37 18 -62 18
c-19 0 -34 -4 -47 -13c-19 -13 -28 -34 -28 -68h49c0 9 -1 19 4 27s13 15 26 15s19 -3 25 -11c5 -7 8 -15 8 -23c0 -7 -4 -14 -8 -20c-2 -4 -6 -7 -10 -10c0 0 -26 -15 -35 -30c-7 -11 -9 -24 -10 -41c0 -1 0 -4 4 -4h39s5 3 5 4c0 6 1 15 2 19c2 7 6 12 12 17l14 9
c12 9 21 17 25 23z" />
    <glyph glyph-name="uniF143" unicode="&#xf143;" horiz-adv-x="256" 
d="M217 371c25 -19 39 -46 39 -83c0 -22 -8 -42 -19 -57c-7 -9 -21 -21 -40 -36l-21 -14c-10 -8 -17 -18 -20 -28c-2 -6 -3 -19 -3 -29c0 -2 -1 -6 -7 -6h-62c-7 0 -7 3 -7 5c1 26 4 49 15 66c15 23 57 48 57 48c6 5 11 9 15 15c7 10 12 21 12 32c0 13 -3 26 -11 36
c-10 12 -21 18 -41 18s-32 -11 -40 -24s-7 -29 -7 -43h-77c0 54 14 88 44 108c20 14 45 20 75 20c39 0 70 -7 98 -28zM114 78c27 -1 47 -20 46 -48s-22 -46 -49 -45c-26 1 -46 19 -45 47s22 47 48 46z" />
    <glyph glyph-name="uniF144" unicode="&#xf144;" horiz-adv-x="384" 
d="M384 160h-48v-160h-96v128h-96v-128h-96v160h-48l192 224z" />
    <glyph glyph-name="uniF27D" unicode="&#xf27d;" horiz-adv-x="320" 
d="M32 192h256l-128 -224zM307 275c8 -5 13 -13 13 -23c0 -16 -14 -28 -30 -28h-4h-252h-4c-16 0 -30 13 -30 28c0 10 6 18 14 23c1 0 1 2 2 2c4 3 7 7 8 12v1c-2 6 -2 12 -2 18c0 42 34 76 76 76c8 0 16 -2 23 -4c-3 -12 -4 -31 -4 -31c2 15 11 29 11 29c18 23 46 38 77 38
c53 0 96 -43 96 -96c0 -11 -2 -21 -5 -30v-1c0 -4 4 -9 8 -12c1 0 2 -2 3 -2z" />
    <glyph glyph-name="uniF145" unicode="&#xf145;" 
d="M192 366c12 -10 36 -30 36 -68c0 -37 -21 -55 -43 -72c-7 -7 -15 -13 -15 -24s8 -18 14 -22l18 -14c23 -19 43 -36 43 -71c0 -47 -47 -95 -135 -95c-74 0 -110 35 -110 72c0 18 10 44 40 62c32 19 75 21 98 23c-7 9 -16 18 -16 34c0 9 3 14 5 20c-6 0 -11 -1 -16 -1
c-54 0 -85 40 -85 79c0 23 10 48 32 67c29 24 64 28 92 28h106l-33 -18h-31zM155 142c-4 0 -7 1 -12 1s-32 -1 -54 -8c-11 -4 -44 -16 -44 -52s36 -62 91 -62c49 0 75 24 75 55c0 26 -17 39 -56 66zM170 238c12 12 13 28 13 37c0 36 -22 92 -65 92c-13 0 -28 -6 -36 -16
c-9 -11 -11 -24 -11 -37c0 -34 20 -90 64 -90c13 0 27 6 35 14zM448 306v-18h-78v-81h-18v81h-80v18h80v78h18v-78h78z" />
    <glyph glyph-name="uniF146" unicode="&#xf146;" 
d="M210 172c22 -18 45 -36 45 -73c0 -49 -47 -99 -139 -99c-80 0 -116 39 -116 77c0 10 3 42 42 65c27 16 61 21 85 23c-4 7 -8 15 -8 26c0 4 0 7 1 10h-4c-19 0 -46 4 -67 26c-15 15 -24 36 -24 57c0 26 13 53 35 71v0c32 25 69 29 94 29h134l-60 -33h-13
c11 -13 23 -31 23 -58c0 -40 -25 -59 -45 -74v-1c-6 -6 -11 -10 -11 -17c0 -6 4 -10 10 -15v0zM85 308c0 -13 4 -33 14 -51c7 -12 21 -27 41 -27c10 0 21 4 28 11c10 10 10 25 10 30c0 18 -6 37 -15 53c-8 13 -20 28 -40 28c-11 0 -23 -5 -29 -13c-6 -7 -9 -18 -9 -31z
M206 80c0 20 -13 31 -50 56c-3 0 -4 1 -8 1c-6 0 -31 -2 -50 -8c-16 -6 -38 -16 -38 -42c0 -31 32 -51 80 -51c41 0 66 17 66 44zM370 306h78v-34h-78v-81h-34v81h-80v34h80v78h34v-78z" />
    <glyph glyph-name="uniF147" unicode="&#xf147;" 
d="M336 224c-26 0 -48 22 -48 48s22 48 48 48s48 -22 48 -48s-22 -48 -48 -48zM420 384c16 0 28 -12 28 -28v-328c0 -16 -12 -28 -28 -28h-392c-16 0 -28 12 -28 28v328c0 16 12 28 28 28h392zM317 186l99 -106v260c0 7 -6 12 -13 12h-358c-7 0 -12 -5 -13 -12v-260l126 152
c4 4 10 8 17 8s13 -2 17 -7l54 -59l4 -4c3 -2 7 -4 11 -4s8 2 12 5l18 16c4 3 8 5 13 5s10 -2 13 -6z" />
    <glyph glyph-name="uniF148" unicode="&#xf148;" 
d="M426 308c13 -1 23 -12 22 -24l-14 -263c-1 -13 -12 -22 -25 -21l-330 16c-13 1 -23 10 -22 23l2 46l-15 -1c-12 -1 -22 7 -23 18l-21 236c-1 11 7 21 19 22l296 24c12 1 22 -7 23 -18l5 -54zM71 302c1 12 11 22 24 22l219 -11l-2 31h-1v1c-1 5 -5 8 -10 8l-261 -22
c-5 0 -10 -4 -10 -9v0v-1l16 -178l18 25zM405 66l10 198v1v0c0 6 -5 10 -11 10l-58 3l-29 2l-204 9c-6 0 -11 -4 -12 -9v0v-1l-3 -63l-7 -128v-7l6 7l102 109c4 4 8 6 14 6s11 -3 14 -7l43 -49l3 -3c2 -2 6 -4 10 -4s5 1 9 3l17 12c4 3 7 4 11 4s9 -2 11 -5l27 -33zM341 186
c-20 0 -35 15 -35 35s16 35 35 35c20 0 35 -16 35 -35s-16 -35 -35 -35z" />
    <glyph glyph-name="uniF149" unicode="&#xf149;" 
d="M448 195c2 -124 -97 -225 -221 -227s-225 97 -227 221s97 225 221 227s225 -97 227 -221zM224 336c-18 0 -32 -14 -32 -32s14 -32 32 -32s32 14 32 32s-14 32 -32 32zM268 53v11h-22v172h-66v-12h22v-160h-22v-11h88z" />
    <glyph glyph-name="uniF14A" unicode="&#xf14a;" horiz-adv-x="128" 
d="M96 0h32v-16h-128v16h32v240h-32v16h96v-256zM64 304c-27 0 -48 21 -48 48s21 48 48 48s48 -21 48 -48s-21 -48 -48 -48z" />
    <glyph glyph-name="uniF14B" unicode="&#xf14b;" horiz-adv-x="416" 
d="M378 313c24 -34 38 -76 38 -121c0 -115 -93 -208 -208 -208s-208 93 -208 208s93 208 208 208c45 0 87 -14 121 -38c6 5 13 7 21 7c19 0 35 -16 35 -35c0 -8 -2 -15 -7 -21zM344 56c18 18 31 38 41 61c10 24 15 49 15 75s-5 51 -15 75c-5 13 -12 25 -20 36
c-5 -2 -10 -3 -15 -3c-19 0 -35 15 -35 34c0 5 2 11 4 15c-11 8 -23 15 -36 20c-24 10 -49 15 -75 15s-51 -5 -75 -15c-23 -10 -43 -23 -61 -41s-31 -38 -41 -61c-10 -24 -15 -49 -15 -75s5 -51 15 -75c10 -23 23 -43 41 -61s38 -31 61 -41c24 -10 49 -15 75 -15s51 5 75 15
c23 10 43 23 61 41zM112 192c0 64 32 96 96 96s96 -32 96 -96s-32 -96 -96 -96s-96 32 -96 96z" />
    <glyph glyph-name="uniF14C" unicode="&#xf14c;" horiz-adv-x="404" 
d="M384 256l-54 52l-9 -9c35 -32 57 -79 57 -130c0 -44 -16 -83 -43 -114l36 -45l-12 -10l-35 43c-32 -30 -75 -49 -122 -49v0v0c-47 0 -90 19 -122 49l-35 -43l-12 10l36 45c-27 31 -43 71 -43 115c0 51 22 97 57 129l-9 9l-54 -52c-12 14 -20 32 -20 52c0 44 35 80 80 82
h5c20 0 39 -7 54 -18l-54 -52l11 -11c26 19 56 32 90 35v0c0 8 8 16 16 16s15 -8 15 -16v0c34 -3 65 -16 91 -35l11 11l-54 52c15 11 34 18 54 18h5c45 -2 80 -38 80 -82c0 -20 -8 -38 -20 -52zM22 280l91 89c-9 5 -19 7 -32 6c-37 -2 -65 -32 -65 -67c0 -10 2 -19 6 -28z
M362 172c0 88 -72 158 -160 158s-160 -70 -160 -158s72 -158 160 -158s160 70 160 158zM291 369l91 -89c4 9 6 18 6 28c0 35 -28 65 -65 67c-13 1 -23 -1 -32 -6zM202 288h16v-144h-112v16h96v128z" />
    <glyph glyph-name="uniF14D" unicode="&#xf14d;" horiz-adv-x="404" 
d="M385 256l-55 52l-9 -9c35 -32 57 -79 57 -130c0 -44 -16 -83 -43 -114l37 -45l-13 -10l-35 43c-32 -30 -75 -49 -122 -49v0v0c-47 0 -90 19 -122 49l-35 -43l-12 10l36 45c-27 31 -43 70 -43 114c0 51 22 98 57 130l-9 9l-54 -52c-12 14 -20 32 -20 52c0 44 35 80 80 82
h5c20 0 39 -7 54 -18l-54 -53l11 -10c26 19 56 32 90 35v0c0 8 8 16 16 16s15 -8 15 -16v0c34 -3 65 -16 91 -35l11 11l-54 52c15 11 34 18 54 18h5c45 -2 80 -38 80 -82c0 -20 -7 -38 -19 -52zM218 144v144h-16v-128h-96v-16h112z" />
    <glyph glyph-name="uniF14E" unicode="&#xf14e;" 
d="M432 304h-416v-288h416v288zM448 320v0v-320h-448v320h448zM40 336v16h368v-16h-368zM72 368v16h304v-16h-304z" />
    <glyph glyph-name="uniF14F" unicode="&#xf14f;" 
d="M448 320v0v-320h-448v320h448zM40 336v16h368v-16h-368zM72 368v16h304v-16h-304z" />
    <glyph glyph-name="uniF150" unicode="&#xf150;" horiz-adv-x="192" 
d="M192 320l-127 -128l127 -128l-32 -32l-160 160v0v0l160 160z" />
    <glyph glyph-name="uniF151" unicode="&#xf151;" horiz-adv-x="320" 
d="M301 288l19 -21l-160 -171l-160 171l19 21l141 -150z" />
    <glyph glyph-name="uniF152" unicode="&#xf152;" horiz-adv-x="192" 
d="M0 320l32 32l160 -160v0v0l-160 -160l-32 32l127 128z" />
    <glyph glyph-name="uniF153" unicode="&#xf153;" horiz-adv-x="192" 
d="M192 333l-150 -141l150 -141l-21 -19l-171 160l171 160z" />
    <glyph glyph-name="uniF154" unicode="&#xf154;" horiz-adv-x="192" 
d="M0 333l21 19l171 -160l-171 -160l-21 19l150 141z" />
    <glyph glyph-name="uniF27E" unicode="&#xf27e;" horiz-adv-x="192" 
d="M190 126c2 -2 2 -4 2 -6s0 -4 -2 -6c0 0 -87 -79 -88 -80s-3 -2 -6 -2s-5 1 -6 2s-88 80 -88 80c-3 3 -3 9 0 12s9 3 12 0l74 -67v285c0 4 4 8 8 8s8 -4 8 -8v-285l74 67c3 3 9 3 12 0z" />
    <glyph glyph-name="uniF27F" unicode="&#xf27f;" horiz-adv-x="320" 
d="M94 98c-2 -2 -4 -2 -6 -2s-4 0 -6 2c0 0 -79 87 -80 88s-2 3 -2 6s1 5 2 6s80 88 80 88c3 3 9 3 12 0s3 -9 0 -12l-67 -74h285c4 0 8 -4 8 -8s-4 -8 -8 -8h-285l67 -74c3 -3 3 -9 0 -12z" />
    <glyph glyph-name="uniF280" unicode="&#xf280;" horiz-adv-x="320" 
d="M226 98c-3 3 -3 9 0 12l67 74h-285c-4 0 -8 4 -8 8s4 8 8 8h285l-67 74c-3 3 -3 9 0 12s9 3 12 0c0 0 79 -87 80 -88s2 -3 2 -6s-1 -5 -2 -6s-80 -88 -80 -88c-2 -2 -4 -2 -6 -2s-4 0 -6 2z" />
    <glyph glyph-name="uniF281" unicode="&#xf281;" horiz-adv-x="192" 
d="M190 258c-3 -3 -9 -3 -12 0l-74 67v-285c0 -4 -4 -8 -8 -8s-8 4 -8 8v285l-74 -67c-3 -3 -9 -3 -12 0s-3 9 0 12c0 0 87 79 88 80s3 2 6 2s5 -1 6 -2s88 -80 88 -80c2 -2 2 -4 2 -6s0 -4 -2 -6z" />
    <glyph glyph-name="uniF155" unicode="&#xf155;" horiz-adv-x="320" 
d="M301 96l-141 150l-141 -150l-19 21l160 171l160 -171z" />
    <glyph glyph-name="uniF156" unicode="&#xf156;" horiz-adv-x="255" 
d="M236 127v1h19l-3 -6c-3 -6 -13 -19 -22 -27s-18 -14 -28 -20s-21 -10 -32 -13s-23 -5 -34 -5c-16 0 -33 3 -49 8s-30 13 -43 24c-12 11 -26 29 -34 46c-7 16 -10 33 -10 58c0 18 4 38 11 55c7 16 17 30 29 42s27 21 43 28c15 6 33 9 53 9c16 0 32 -3 46 -8
c15 -5 28 -12 39 -22s17 -21 24 -35c6 -13 8 -26 8 -44c0 -14 -2 -28 -7 -40s-9 -20 -17 -30c-8 -9 -13 -15 -23 -21c-11 -6 -20 -9 -29 -9c-8 0 -15 2 -20 7c-3 2 -5 6 -6 9c-6 -6 -11 -10 -17 -12c-10 -3 -18 -4 -26 -4s-15 1 -21 4s-12 7 -17 12s-8 11 -11 18
s-5 14 -5 22c0 12 3 24 7 36v2c4 11 5 16 13 26c8 11 17 19 28 26s24 11 38 11c12 0 21 -3 31 -9c7 -4 12 -10 16 -16l6 17h18l-38 -102c-2 -5 -4 -10 -5 -14s-1 -7 -1 -10c0 -2 1 -4 3 -5s4 -2 8 -2c6 0 11 2 20 7c8 4 12 9 19 17c6 8 10 14 14 25s6 23 6 35
c0 15 -2 25 -7 36c-6 13 -10 22 -19 30s-20 15 -33 20s-27 7 -42 7c-19 0 -35 -3 -48 -9c-15 -6 -27 -14 -37 -24c-11 -10 -19 -23 -25 -37c-6 -15 -10 -32 -10 -48c0 -22 2 -36 8 -49c6 -15 17 -31 28 -41s24 -18 38 -23s30 -7 46 -7c10 0 20 1 30 4s18 6 27 11
s17 11 24 18s14 13 19 21zM147 154c4 5 8 12 11 20l21 57c-2 5 -4 10 -7 13c-3 4 -6 6 -10 8c-1 0 -1 1 -2 1c-3 2 -5 3 -9 4c-5 1 -9 2 -13 2c-10 0 -19 -3 -28 -9s-17 -13 -23 -22c-5 -8 -7 -11 -10 -20c0 -1 -1 -3 -1 -4c-4 -11 -5 -20 -5 -30c0 -6 1 -11 3 -16
s5 -9 8 -13s7 -6 12 -8s9 -3 15 -3c4 0 9 1 14 2c4 1 8 2 12 5s8 7 12 13z" />
    <glyph glyph-name="uniF157" unicode="&#xf157;" horiz-adv-x="256" 
d="M228 128v0h28c-1 -1 -2 -4 -3 -6c-4 -6 -14 -19 -23 -27s-18 -14 -28 -20s-20 -10 -32 -13c-11 -3 -23 -5 -34 -5c-16 0 -33 3 -49 8s-30 13 -43 24c-12 10 -26 28 -34 46c-7 16 -10 33 -10 58c0 19 4 39 11 55s17 30 29 42s28 21 44 28c15 6 32 9 52 9c16 0 31 -3 46 -8
s28 -12 39 -22s18 -22 25 -36c6 -14 8 -26 8 -44c0 -14 -2 -28 -7 -40c-4 -11 -9 -20 -17 -30c-7 -9 -14 -16 -24 -22c-12 -6 -21 -9 -30 -9s-16 2 -22 8c-2 1 -3 3 -4 5c-4 -4 -9 -6 -14 -8c-10 -3 -18 -5 -27 -5c-8 0 -16 2 -23 5s-12 7 -17 12s-9 12 -12 19s-4 14 -4 22
c0 12 2 25 6 37l1 1c4 10 5 17 13 27c8 11 17 20 28 27c12 7 24 10 38 10c12 0 22 -3 33 -9c5 -3 8 -6 12 -10l5 12h25l-39 -104c-2 -5 -3 -9 -4 -13c-1 -3 -1 -7 -1 -9s0 -3 1 -3c0 0 1 -1 5 -1c5 0 11 2 19 7c7 4 10 8 16 16s9 13 13 23s6 20 6 32c0 14 -1 24 -6 34
c-5 12 -10 21 -18 28c-9 8 -19 14 -31 18s-26 7 -40 7c-18 0 -32 -3 -44 -8c-14 -6 -25 -13 -35 -23s-18 -22 -24 -35c-6 -14 -9 -30 -9 -45c0 -21 3 -34 8 -46c6 -14 16 -30 26 -39s22 -16 35 -21c14 -5 28 -7 43 -7c10 0 20 2 29 4s18 6 26 11s28 20 38 33zM144 157
c4 5 7 12 10 19l20 55c-1 4 -3 7 -5 9c-3 3 -6 6 -9 8h-1h-1v1c-3 2 -5 2 -8 3c-4 1 -8 1 -12 1c-9 0 -17 -2 -25 -7c-10 -6 -17 -14 -21 -21c-5 -8 -6 -11 -9 -19c0 -1 -1 -2 -1 -3c-3 -10 -6 -19 -6 -28c0 -5 1 -10 3 -14s4 -8 7 -11s7 -6 11 -8s8 -2 13 -2c4 0 8 0 12 1
v0c4 1 7 2 11 5c3 2 7 5 11 11z" />
    <glyph glyph-name="uniF158" unicode="&#xf158;" horiz-adv-x="384" 
d="M318 222c0 -114 28 -126 66 -158h-384c38 32 66 44 66 158c0 98 53 130 102 138v2c0 12 11 22 24 22s24 -10 24 -22v-2c49 -7 102 -40 102 -138zM43 80h298c-25 25 -40 58 -40 142c0 46 -13 80 -37 101c-23 19 -52 23 -72 23s-49 -4 -72 -23c-25 -21 -37 -55 -37 -101
c0 -51 -5 -85 -17 -110c-6 -13 -14 -23 -23 -32zM192 0c-27 0 -49 20 -52 43h104c-3 -23 -25 -43 -52 -43z" />
    <glyph glyph-name="uniF159" unicode="&#xf159;" horiz-adv-x="384" 
d="M318 222c0 -114 28 -126 66 -158h-384c38 32 66 44 66 158c0 98 53 130 102 138v2c0 12 11 22 24 22s24 -10 24 -22v-2c49 -7 102 -40 102 -138zM192 0c-27 0 -49 20 -52 43h104c-3 -23 -25 -43 -52 -43z" />
    <glyph glyph-name="uniF15A" unicode="&#xf15a;" horiz-adv-x="226" 
d="M131 316l-100 -140h65h19l-3 -19l-17 -89l100 140h-65h-19l3 19zM160 384v0l-30 -160h96l-160 -224l30 160h-96z" />
    <glyph glyph-name="uniF15B" unicode="&#xf15b;" horiz-adv-x="226" 
d="M160 384v0l-30 -160h96l-160 -224l30 160h-96z" />
    <glyph glyph-name="uniF15C" unicode="&#xf15c;" horiz-adv-x="418" 
d="M385 384c19 0 33 -13 33 -32v-286c0 -19 -14 -34 -33 -34h-143s-25 -4 -25 -19v-13h-8h-8v13c0 15 -11 19 -25 19h-143c-19 0 -33 15 -33 34v286c0 19 14 32 33 32h150c10 0 20 -5 26 -12v0v0c6 7 16 12 26 12h150zM201 37v309c0 9 -12 22 -25 22h-143
c-9 0 -16 -7 -16 -16v-286c0 -9 7 -18 16 -18h144c10 0 19 -3 24 -11zM273 368v-100l23 14l9 6l9 -6l23 -14v100h-64zM401 66v286c0 9 -7 16 -16 16h-32v-131l-48 32l-48 -32v131h-15c-13 0 -25 -13 -25 -22v-309c5 9 14 11 24 11h144c9 0 16 9 16 18z" />
    <glyph glyph-name="uniF15D" unicode="&#xf15d;" horiz-adv-x="418" 
d="M296 283l-23 -15v116h64v-116l-23 15l-9 6zM385 384c19 0 33 -13 33 -32v-286c0 -19 -14 -34 -33 -34h-143s-25 -4 -25 -19v-13h-8h-8v13c0 15 -11 19 -25 19h-143c-19 0 -33 15 -33 34v286c0 19 14 32 33 32h150s18 -8 18 -15v-329l8 -6l8 6v329s10 15 18 15h22v-146
l48 32l48 -32v146h32z" />
    <glyph glyph-name="uniF15E" unicode="&#xf15e;" horiz-adv-x="320" 
d="M192 208h-1h-63c-9 0 -16 -7 -16 -16s7 -16 16 -16h64c9 0 16 7 16 16s-7 16 -16 16zM192 224v0c18 0 32 -14 32 -32s-14 -32 -32 -32h-64c-18 0 -32 14 -32 32s14 32 32 32h64zM320 336v-80h-16v-208h-288v208h-16v80h320zM288 64v192h-256v-192h256zM304 272v48h-288
v-48h288z" />
    <glyph glyph-name="uniF15F" unicode="&#xf15f;" horiz-adv-x="320" 
d="M16 48v192h288v-192h-288zM128 208c-9 0 -16 -7 -16 -16s7 -16 16 -16h64c9 0 16 7 16 16s-7 16 -16 16h-64zM0 336h320v-80h-16h-288h-16v80z" />
    <glyph glyph-name="uniF282" unicode="&#xf282;" horiz-adv-x="416" 
d="M368 320h48v-320h-416v320h48v16h32v-16h48v30v2c0 18 10 32 29 32h99c19 0 32 -14 32 -32v-2v-30h48v16h32v-16zM144 320v0h128v0v30c0 10 -7 18 -17 18h-97c-11 0 -14 -8 -14 -18v-30zM400 16v224h-384v-224h384zM400 256v48h-32v-16h-32v16h-256v-16h-32v16h-32v-48
h384z" />
    <glyph glyph-name="uniF283" unicode="&#xf283;" horiz-adv-x="416" 
d="M48 320v16h32v-16h-32zM0 0v240h416v-240h-416zM336 320v16h32v-16h-32zM368 320h48v-64h-416v64h48v-32h32v32h48v30v2c0 18 10 32 29 32h99c19 0 32 -14 32 -32v-2v-30h48v-32h32v32zM272 320v30c0 10 -7 18 -17 18h-97c-11 0 -14 -8 -14 -18v-30v0h128v0z" />
    <glyph glyph-name="uniF160" unicode="&#xf160;" horiz-adv-x="384" 
d="M0 304h304v-304h-304v304zM288 16v272h-272v-272h272zM384 384v-304h-64v16h48v272h-272v-48h-16v64h304z" />
    <glyph glyph-name="uniF161" unicode="&#xf161;" horiz-adv-x="384" 
d="M0 304h304v-304h-304v304zM80 384h304v-304h-64v240h-240v64z" />
    <glyph glyph-name="uniF284" unicode="&#xf284;" horiz-adv-x="288" 
d="M32 288v64h224v-64h-224zM48 336v-32h192v32h-192zM256 384c18 0 32 -14 32 -32v-320c0 -18 -14 -32 -32 -32h-224c-18 0 -32 14 -32 32v320c0 18 14 32 32 32h224zM272 32v320c0 9 -7 16 -16 16h-224c-9 0 -16 -7 -16 -16v-320c0 -9 7 -16 16 -16h224c9 0 16 7 16 16z
M48 208h32h16v-16h-64v64h16v-16v-32zM48 128h32h16v-16h-64v64h16v-16v-32zM48 48h32h16v-16h-64v64h16v-16v-32zM128 208h32h16v-16h-64v64h16v-16v-32zM208 208h32h16v-16h-64v64h16v-16v-32zM128 128h32h16v-16h-64v64h16v-16v-32zM128 48h32h16v-16h-64v64h16v-16v-32z
M208 48h32h16v-16h-64v144h16v-96v-32z" />
    <glyph glyph-name="uniF285" unicode="&#xf285;" horiz-adv-x="288" 
d="M256 384c18 0 32 -14 32 -32v-320c0 -18 -14 -32 -32 -32h-224c-18 0 -32 14 -32 32v320c0 18 14 32 32 32h224zM248 168h-48v-128h48v128zM248 248h-48v-48h48v48zM168 88h-48v-48h48v48zM168 168h-48v-48h48v48zM168 248h-48v-48h48v48zM88 88h-48v-48h48v48zM88 168
h-48v-48h48v48zM88 248h-48v-48h48v48zM40 296h208v48h-208v-48z" />
    <glyph glyph-name="uniF162" unicode="&#xf162;" horiz-adv-x="384" 
d="M16 336v-64h352v64zM288 352h96v-352h-384v352h96v32h16v-32h160v32h16v-32zM368 16v240h-352v-240h352zM368 272v64h-80v-32h-16v32h-160v-32h-16v32h-80v-64h352z" />
    <glyph glyph-name="uniF163" unicode="&#xf163;" horiz-adv-x="384" 
d="M0 0v256h384v-256h-384zM384 352v-80h-384v80h96v-48h16v48h160v-48h16v48h96zM96 352v32h16v-32h-16zM272 352v32h16v-32h-16z" />
    <glyph glyph-name="uniF164" unicode="&#xf164;" horiz-adv-x="384" 
d="M354 288c18 0 30 -13 30 -31v-176c0 -18 -12 -33 -30 -33h-320c-18 0 -34 15 -34 33v176c0 18 16 31 34 31h13v16h34v-16h13c32 36 43 48 55 48h88c12 0 23 -12 55 -48h62zM368 81v176c0 9 -5 15 -14 15h-62h-7l-5 3c-3 4 -7 8 -10 11c-12 13 -20 24 -26 30
c-5 5 -7 4 -7 4h-88s-2 0 -7 -4c-6 -5 -14 -14 -25 -27c-3 -4 -7 -10 -11 -14l-5 -3h-7h-60c-9 0 -18 -7 -18 -15v-176c0 -9 9 -17 18 -17h320c8 0 14 8 14 17zM192 258c47 0 86 -38 86 -85s-39 -85 -86 -85s-86 38 -86 85s39 85 86 85zM192 104c38 0 70 31 70 69
s-32 69 -70 69s-70 -31 -70 -69s32 -69 70 -69zM288 239v17h17v-17h-17zM160 173c0 21 11 32 32 32s32 -11 32 -32s-11 -32 -32 -32s-32 11 -32 32z" />
    <glyph glyph-name="uniF165" unicode="&#xf165;" horiz-adv-x="384" 
d="M354 288c18 0 30 -13 30 -31v-176c0 -18 -12 -33 -30 -33h-320c-18 0 -34 15 -34 33v176c0 18 16 31 34 31h13v16h34v-16h13c32 36 43 48 55 48h88c12 0 23 -12 55 -48h62zM192 88c47 0 86 38 86 85s-39 85 -86 85s-86 -38 -86 -85s39 -85 86 -85zM305 239v17h-17v-17h17
zM192 242c38 0 70 -31 70 -69s-32 -69 -70 -69s-70 31 -70 69s32 69 70 69zM192 141c18 0 32 14 32 32s-14 32 -32 32s-32 -14 -32 -32s14 -32 32 -32z" />
    <glyph glyph-name="uniF166" unicode="&#xf166;" horiz-adv-x="384" 
d="M377 32c0 -14 -11 -25 -25 -25s-25 11 -25 25s11 25 25 25s25 -11 25 -25zM89 32c0 -14 -11 -25 -25 -25s-25 11 -25 25s11 25 25 25s25 -11 25 -25zM64 352h320l-15 -175s-209 -30 -244 -34s-69 -30 -74 -62h333v-17h-352s0 5 2 17c5 35 33 62 65 73l-57 213h-42v17h53z
M352 192l15 143h-297l44 -177c1 0 2 1 3 1z" />
    <glyph glyph-name="uniF167" unicode="&#xf167;" horiz-adv-x="384" 
d="M377 32c0 -14 -11 -25 -25 -25s-25 11 -25 25s11 25 25 25s25 -11 25 -25zM89 32c0 -14 -11 -25 -25 -25s-25 11 -25 25s11 25 25 25s25 -11 25 -25zM64 352h320l-15 -175s-209 -30 -244 -34s-69 -30 -74 -62h333v-17h-352s0 5 2 17c5 35 33 62 65 73l-57 213h-42v17h53z
" />
    <glyph glyph-name="uniF168" unicode="&#xf168;" horiz-adv-x="416" 
d="M16 384v-192h96v-16h-112v224h288v-112h-16v96h-256zM128 272h288v-224h-48v-64h-13l-64 64h-163v224zM400 64v192h-256v-192h153l55 -55v55h48z" />
    <glyph glyph-name="uniF169" unicode="&#xf169;" horiz-adv-x="416" 
d="M288 400v-112h-176v-112h-112v224h288zM128 272h288v-224h-48v-64h-13l-64 64h-163v224z" />
    <glyph glyph-name="uniF16A" unicode="&#xf16a;" horiz-adv-x="384" 
d="M192 336c-97 0 -176 -62 -176 -138c0 -26 10 -51 27 -73c0 -1 0 -2 1 -3s2 -1 2 -2c4 -6 6 -13 6 -20c0 -3 1 -3 -13 -47l39 17v0c2 1 10 4 11 4h1v0c5 2 10 3 16 3c5 0 9 -1 14 -2l1 -1h2c19 -6 41 -10 70 -10c48 0 92 15 125 40c32 25 50 58 50 94
c0 76 -79 138 -176 138zM192 352v0c106 0 192 -69 192 -154s-85 -150 -191 -150c-27 0 -52 3 -75 11h-2v0c-3 1 -6 2 -10 2s-9 -1 -12 -2h1h-1c-1 0 -9 -4 -10 -4l-50 -22l-2 -1h-3h-3c-6 1 -8 6 -7 10v0s17 57 17 58c0 4 -1 8 -3 11v0v0v0l1 -1l-4 4c-19 24 -30 53 -30 84
c0 85 86 154 192 154z" />
    <glyph glyph-name="uniF16B" unicode="&#xf16b;" horiz-adv-x="384" 
d="M192 352v0c106 0 192 -69 192 -154s-85 -150 -191 -150c-27 0 -52 3 -75 11h-2v0c-3 1 -6 2 -10 2s-9 -1 -12 -2h1h-1c-1 0 -9 -4 -10 -4l-50 -22l-2 -1h-3h-3c-6 1 -8 6 -7 10v0s17 57 17 58c0 4 -1 8 -3 11v0v0v0l1 -1l-4 4c-19 24 -30 53 -30 84c0 85 86 154 192 154z
" />
    <glyph glyph-name="uniF16C" unicode="&#xf16c;" horiz-adv-x="207" 
d="M74 118c-2 -2 -6 -4 -9 -4s-7 2 -9 4l-56 56l18 18l47 -47l125 126l17 -18z" />
    <glyph glyph-name="uniF16D" unicode="&#xf16d;" horiz-adv-x="416" 
d="M292 271l18 -18l-134 -135c-2 -2 -6 -4 -9 -4s-7 2 -9 4l-56 56l18 18l47 -47zM208 400c115 0 208 -93 208 -208s-93 -208 -208 -208s-208 93 -208 208s93 208 208 208zM208 1c105 0 191 86 191 191s-86 191 -191 191s-191 -86 -191 -191s86 -191 191 -191z" />
    <glyph glyph-name="uniF16E" unicode="&#xf16e;" horiz-adv-x="416" 
d="M208 400c115 0 208 -93 208 -208s-93 -208 -208 -208s-208 93 -208 208s93 208 208 208zM176 118l134 135l-18 18l-125 -126l-47 47l-18 -18l56 -56c2 -2 6 -4 9 -4s7 2 9 4z" />
    <glyph glyph-name="uniF16F" unicode="&#xf16f;" horiz-adv-x="416" 
d="M208 400c115 0 208 -93 208 -208s-93 -208 -208 -208s-208 93 -208 208s93 208 208 208zM208 1c105 0 191 86 191 191s-86 191 -191 191s-191 -86 -191 -191s86 -191 191 -191zM208 352c88 0 160 -72 160 -160s-72 -160 -160 -160s-160 72 -160 160s72 160 160 160z" />
    <glyph glyph-name="uniF170" unicode="&#xf170;" horiz-adv-x="416" 
d="M208 400c115 0 208 -93 208 -208s-93 -208 -208 -208s-208 93 -208 208s93 208 208 208zM208 1c105 0 191 86 191 191s-86 191 -191 191s-191 -86 -191 -191s86 -191 191 -191z" />
    <glyph glyph-name="uniF171" unicode="&#xf171;" horiz-adv-x="416" 
d="M208 400c115 0 208 -93 208 -208s-93 -208 -208 -208s-208 93 -208 208s93 208 208 208zM208 1c105 0 191 86 191 191s-86 191 -191 191s-191 -86 -191 -191s86 -191 191 -191zM208 192v128h17v-145h-113v17h96z" />
    <glyph glyph-name="uniF172" unicode="&#xf172;" horiz-adv-x="416" 
d="M208 400c115 0 208 -93 208 -208s-93 -208 -208 -208s-208 93 -208 208s93 208 208 208zM225 175v145h-17v-128h-96v-17h113z" />
    <glyph glyph-name="uniF2BD" unicode="&#xf2bd;" horiz-adv-x="192" 
d="M180 288l12 -12l-84 -84l84 -84l-12 -12l-84 84l-84 -84l-12 12l84 84l-84 84l12 12l84 -84z" />
    <glyph glyph-name="uniF2BB" unicode="&#xf2bb;" horiz-adv-x="416" 
d="M355 339c81 -81 81 -213 0 -294s-213 -81 -294 0s-81 213 0 294s213 81 294 0zM343 57c74 74 74 196 0 270s-196 74 -270 0s-74 -196 0 -270s196 -74 270 0zM292 288l12 -12l-84 -84l84 -84l-12 -12l-84 84l-84 -84l-12 12l84 84l-84 84l12 12l84 -84z" />
    <glyph glyph-name="uniF2BC" unicode="&#xf2bc;" horiz-adv-x="416" 
d="M355 339c81 -81 81 -213 0 -294s-213 -81 -294 0s-81 213 0 294s213 81 294 0zM304 108l-84 84l84 84l-12 12l-84 -84l-84 84l-12 -12l84 -84l-84 -84l12 -12l84 84l84 -84z" />
    <glyph glyph-name="uniF173" unicode="&#xf173;" 
d="M161 67l55 -54v242h16v-242l55 54l12 -12l-75 -73l-74 73zM367 284c45 0 81 -37 81 -82s-37 -82 -82 -82v0h-101v16h97h4c37 0 66 30 66 66s-29 67 -66 67h-15v20c0 55 -46 97 -101 97c-38 0 -73 -22 -90 -56l-6 -14l-14 7c-6 3 -13 5 -20 5c-22 0 -40 -18 -44 -39l-1 -9
l-9 -3c-30 -10 -50 -36 -50 -67c0 -40 33 -74 74 -74h91v-16h-91c-50 0 -90 40 -90 89c0 39 26 71 61 83c5 28 29 51 59 51c10 0 18 -2 26 -6c19 39 59 65 105 65c64 0 117 -51 117 -115c0 -1 -1 -2 -1 -3z" />
    <glyph glyph-name="uniF174" unicode="&#xf174;" 
d="M216 13v107h16v-107l55 54l12 -12l-75 -73l-74 73l11 12zM367 284c45 0 81 -37 81 -82s-37 -82 -82 -82h-134v135h-16v-135h-35h-21h-70c-50 0 -90 40 -90 89c0 39 26 71 61 83c5 28 29 51 59 51c10 0 18 -2 26 -6c19 39 59 65 105 65c64 0 117 -51 117 -115
c0 -1 -1 -2 -1 -3z" />
    <glyph glyph-name="uniF175" unicode="&#xf175;" 
d="M367 215c45 0 81 -37 81 -83c0 -45 -37 -84 -82 -84h-276c-50 0 -90 42 -90 92c0 40 26 71 61 83c5 28 29 52 59 52c10 0 18 -2 26 -6c19 39 59 67 105 67c64 0 117 -53 117 -117c0 -1 -1 -3 -1 -4zM366 64c37 0 66 32 66 69s-29 67 -66 67h-15v21c0 56 -46 99 -101 99
c-38 0 -73 -23 -90 -58l-6 -14l-14 7c-6 3 -13 5 -20 5c-22 0 -40 -17 -44 -39l-1 -9l-9 -3c-30 -10 -50 -37 -50 -69c0 -41 33 -76 74 -76h272h4z" />
    <glyph glyph-name="uniF176" unicode="&#xf176;" 
d="M161 188l-11 11l74 75l75 -75l-12 -11l-55 54v-242h-16v242zM367 264c45 0 81 -39 81 -85s-37 -83 -82 -83v0h-101v16h97h4c37 0 66 30 66 67s-29 70 -66 70l-15 1v20c0 56 -46 99 -101 99c-38 0 -73 -23 -90 -58l-6 -13l-14 6c-6 3 -13 5 -20 5c-22 0 -40 -17 -44 -39
l-1 -9l-9 -3c-30 -10 -50 -39 -50 -71c0 -41 33 -75 74 -75h91v-16h-91c-50 0 -90 40 -90 90c0 40 26 74 61 86c5 28 29 52 59 52c10 0 18 -2 26 -6c19 39 59 66 105 66c64 0 117 -52 117 -116c0 -1 -1 -3 -1 -4z" />
    <glyph glyph-name="uniF177" unicode="&#xf177;" 
d="M216 0v96h16v-96h-16zM367 264c45 0 81 -39 81 -85s-37 -83 -82 -83h-134v146l55 -54l12 11l-75 75l-74 -75l11 -11l55 54v-146h-35h-31h-60c-50 0 -90 40 -90 90c0 40 26 74 61 86c5 28 29 52 59 52c10 0 18 -2 26 -6c19 39 59 66 105 66c64 0 117 -52 117 -116
c0 -1 -1 -3 -1 -4z" />
    <glyph glyph-name="uniF178" unicode="&#xf178;" 
d="M367 215c45 0 81 -37 81 -83c0 -45 -37 -84 -82 -84h-276c-50 0 -90 42 -90 92c0 40 26 71 61 83c5 28 29 52 59 52c10 0 18 -2 26 -6c19 39 59 67 105 67c64 0 117 -53 117 -117c0 -1 -1 -3 -1 -4z" />
    <glyph glyph-name="uniF307" unicode="&#xf307;" horiz-adv-x="384" 
d="M125 224c-34 0 -63 -28 -63 -62v-12s1 -10 1 -10c-5 0 -12 -1 -14 -1c-19 -3 -33 -18 -33 -37c0 -10 3 -19 10 -26s16 -11 26 -11h157c27 0 49 22 49 49s-22 50 -49 50c-2 0 -4 -1 -6 -1l-14 -2l-3 14c-3 14 -11 26 -22 35s-25 14 -39 14zM125 240v0c37 0 68 -26 76 -61
h8c36 0 65 -29 65 -65s-29 -66 -65 -66h-157c-28 0 -52 24 -52 53c0 27 21 51 47 53v8c0 43 35 78 78 78zM361 142c8 0 15 2 23 4c-4 -7 -9 -14 -14 -20c-21 -24 -50 -41 -84 -45c4 6 6 12 8 19c19 4 36 13 50 25c-18 1 -35 6 -50 13c-23 11 -42 29 -56 51
c-14 21 -22 48 -22 75c0 15 2 30 7 44c-24 -12 -43 -33 -53 -59c-5 2 -12 4 -18 5c14 36 45 65 82 77c8 2 16 4 24 5c-5 -6 -9 -13 -12 -20c-8 -16 -12 -34 -12 -52c0 -32 12 -63 35 -86s54 -36 86 -36h6z" />
    <glyph glyph-name="uniF308" unicode="&#xf308;" horiz-adv-x="384" 
d="M361 142c8 0 15 2 23 4c-4 -7 -9 -15 -14 -21c-21 -24 -50 -40 -84 -44h-3c4 10 7 21 7 32c0 22 -9 43 -24 58c-14 15 -33 23 -53 24c-6 16 -16 29 -29 40c-10 8 -20 13 -32 17v2c14 36 45 65 82 77c8 2 16 4 24 5c-5 -6 -9 -13 -12 -20c-8 -16 -12 -34 -12 -52
c0 -32 12 -63 35 -86s54 -36 86 -36h6zM125 239v0c37 0 68 -26 76 -61h8c36 0 65 -29 65 -65s-29 -66 -65 -66h-157c-28 0 -52 24 -52 53c0 27 21 51 47 53v7c0 43 35 79 78 79z" />
    <glyph glyph-name="uniF179" unicode="&#xf179;" horiz-adv-x="274" 
d="M125 272c-34 0 -63 -28 -63 -62v-12s1 -10 1 -10c-6 0 -12 -1 -14 -1c-19 -3 -33 -18 -33 -37c0 -10 3 -19 10 -26s16 -11 26 -11h157c27 0 49 22 49 49s-22 50 -49 50c-2 0 -4 -1 -6 -1l-14 -2l-3 14c-3 14 -11 26 -22 35s-25 14 -39 14zM125 288v0c37 0 68 -26 76 -61
h8c36 0 65 -29 65 -65s-29 -66 -65 -66h-157c-28 0 -52 24 -52 53c0 27 21 51 47 53v8c0 43 35 78 78 78z" />
    <glyph glyph-name="uniF17A" unicode="&#xf17a;" horiz-adv-x="274" 
d="M125 288v0c37 0 68 -26 76 -61h8c36 0 65 -29 65 -65s-29 -66 -65 -66h-157c-28 0 -52 24 -52 53c0 27 21 51 47 53v8c0 43 35 78 78 78z" />
    <glyph glyph-name="uniF17B" unicode="&#xf17b;" horiz-adv-x="384" 
d="M313 235c4 -12 7 -25 8 -37v-13c-1 -13 -4 -25 -8 -37c-1 -4 -3 -7 -5 -12c-5 -11 -11 -20 -19 -29c0 0 -2 -3 -6 -7s-7 -6 -7 -6c-9 -8 -19 -14 -29 -19c-4 -2 -8 -3 -11 -4c-12 -4 -24 -7 -37 -8h-13c-13 1 -25 4 -37 8c-4 1 -7 3 -11 5c-11 5 -23 12 -32 21l-4 4l-4 4
c-9 10 -16 20 -21 32c-2 3 -3 7 -4 10c0 0 -1 3 -3 10s-3 10 -3 10c-1 6 -2 13 -2 19v11c1 13 4 26 8 38c1 4 2 7 4 10c5 12 12 22 21 32c1 2 3 4 4 5s3 3 5 4c9 8 20 15 31 20c4 2 7 4 11 5c12 4 25 7 38 8h11c6 0 13 -1 19 -2l8 -2s11 -4 11 -4c3 -1 7 -2 11 -4
c12 -5 22 -12 32 -21l4 -4l4 -4c9 -9 15 -20 21 -32c2 -4 4 -7 5 -11zM81 186c0 -5 1 -11 2 -16l103 28l28 103c-5 1 -10 2 -16 2h-10c-11 0 -22 -3 -33 -7c-3 -1 -8 -2 -11 -4c-10 -5 -18 -10 -26 -18l-4 -4l-4 -4c-8 -9 -14 -18 -19 -28l-3 -9c-4 -11 -7 -22 -7 -33v-10z
M240 89c9 4 18 10 26 17l-76 76l-103 -28v-1c1 -3 3 -6 4 -9c5 -10 11 -20 19 -28l4 -4s2 -3 3 -4c8 -8 18 -13 28 -18c3 -2 7 -3 10 -4c10 -4 21 -6 32 -7h11c11 0 22 3 32 7c3 1 7 2 10 3zM305 186v11c-1 11 -3 22 -7 32c-1 3 -2 7 -4 10c-5 10 -11 20 -19 28l-3 3l-4 4
c-8 8 -18 14 -28 19c-3 2 -7 2 -10 3l-1 1l-28 -104l76 -76c7 8 13 16 17 25c2 3 3 7 4 11c4 10 7 22 7 33zM384 175l-33 -8c-1 -5 -2 -10 -3 -14l27 -20l-12 -30l-34 5c-2 -4 -5 -7 -8 -11l17 -29l-22 -23l-30 17c-3 -2 -6 -5 -10 -7l5 -34l-29 -12l-21 27
c-4 -1 -9 -2 -14 -3l-8 -33h-32l-9 33c-4 1 -9 2 -13 3l-21 -28l-29 12l4 34c-4 2 -7 5 -11 8l-30 -18l-23 22l18 31c-3 4 -5 7 -7 11l-35 -5l-12 29l28 22c-1 4 -1 8 -2 12l-35 9v32l35 9c1 4 1 8 2 12l-29 22l12 30l36 -5c2 4 5 7 7 10l-19 32l22 22l32 -19c4 3 8 6 12 8
l-5 35l29 13l22 -29c4 1 8 1 12 2l9 35h32l9 -35c4 -1 8 -1 12 -2l22 28l29 -12l-5 -35c4 -2 7 -5 11 -8l30 18l22 -23l-17 -29c3 -4 5 -7 7 -11l35 5l12 -30l-28 -21c1 -4 2 -9 3 -13l33 -9v-32zM338 140l-8 7l2 10l3 12l1 11l10 2l22 6v7l-22 6l-10 2l-1 11l-3 12l-2 10
l8 6l18 13l-3 7l-22 -3l-10 -1l-6 8c-2 3 -3 6 -6 10l-7 8l6 10l11 18l-5 6l-20 -12l-8 -5l-9 7l-9 6l-10 6l2 10l4 23l-7 2l-14 -18l-6 -8l-10 2c-4 1 -7 1 -11 2l-11 2l-3 10l-5 23h-7l-6 -23l-3 -10l-11 -2c-4 0 -6 -1 -10 -2l-11 -2l-6 8l-14 19l-7 -3l3 -23l2 -11
l-9 -5l-2 -1c-3 -2 -5 -4 -8 -6l-9 -6l-9 6l-21 12l-5 -5l12 -21l6 -9l-6 -8c-2 -3 -4 -7 -6 -10l-6 -9l-10 2l-23 3l-3 -7l19 -14l8 -6l-2 -10c-1 -4 -1 -7 -2 -11l-2 -11l-10 -2l-23 -6v-7l23 -6l10 -3l1 -10c1 -4 2 -7 3 -11l2 -11l-8 -6l-19 -14l3 -6l23 3l10 1l6 -9
c2 -4 4 -7 6 -10l6 -8l-5 -9l-12 -20l5 -5l20 11l9 6l9 -6c3 -2 6 -5 10 -7l9 -5l-2 -11l-3 -22l7 -3l13 18l6 9l11 -3c4 -1 8 -1 12 -2l10 -2l3 -10l5 -21h8l5 21l2 10l11 2c4 1 8 1 12 2l10 3l7 -9l13 -17l7 3l-4 21l-1 11l9 5c2 2 4 4 7 6c0 0 1 1 2 1l8 6l9 -5l19 -11
l5 5l-11 18l-5 9l6 9c2 3 6 6 8 10l5 9l11 -1l21 -3l3 6z" />
    <glyph glyph-name="uniF17C" unicode="&#xf17c;" horiz-adv-x="384" 
d="M384 175l-33 -8c-1 -5 -2 -10 -3 -14l27 -20l-12 -30l-34 5c-2 -4 -5 -7 -8 -11l17 -29l-22 -23l-30 17c-3 -2 -6 -5 -10 -7l5 -34l-29 -12l-21 27c-4 -1 -9 -2 -14 -3l-8 -33h-32l-9 33c-4 1 -9 2 -13 3l-21 -28l-29 12l4 34c-4 2 -7 5 -11 8l-30 -18l-23 22l18 31
c-3 4 -5 7 -7 11l-35 -5l-12 29l28 22c-1 4 -1 8 -2 12l-35 9v32l35 9c1 4 1 8 2 12l-29 22l12 30l36 -5c2 4 5 7 7 10l-19 32l22 22l32 -19c4 3 8 6 12 8l-5 35l29 13l22 -29c4 1 8 1 12 2l9 35h32l9 -35c4 -1 8 -1 12 -2l22 28l29 -12l-5 -35c4 -2 7 -5 11 -8l30 18
l22 -23l-17 -29c3 -4 5 -7 7 -11l35 5l12 -30l-28 -21c1 -4 2 -9 3 -13l33 -9v-32zM321 185c0 4 -1 8 -1 12c-1 13 -3 25 -7 37c-1 4 -3 8 -5 12c-5 11 -12 22 -21 31l-4 4l-5 5c-10 9 -19 16 -31 21c-4 2 -8 3 -11 4c0 0 -7 2 -11 3l-8 2c-6 1 -13 3 -19 3h-11
c-13 -1 -26 -4 -38 -8c-4 -1 -7 -3 -11 -5c-11 -5 -22 -12 -31 -20c-2 -1 -4 -4 -5 -5s-3 -2 -4 -4c-9 -10 -16 -20 -21 -32c-2 -3 -4 -7 -5 -11c-4 -12 -6 -24 -7 -37v-12c0 -6 1 -12 2 -18c0 0 1 -3 3 -10s3 -10 3 -10c1 -3 3 -7 4 -10c5 -12 12 -22 21 -32
c2 -2 2 -3 4 -5c1 -1 3 -2 4 -3c9 -9 20 -16 32 -22c4 -2 7 -3 11 -4c12 -4 24 -7 37 -8h13c12 1 25 3 37 7c3 1 7 3 11 5c10 5 20 11 29 19c0 0 3 2 7 6s6 7 6 7c8 9 14 18 19 29c2 5 4 8 5 12c4 12 7 24 8 37zM214 301l-28 -103l-103 -28c-1 5 -2 11 -2 16v10
c0 11 3 22 7 33l3 9c5 10 11 19 19 28l4 4l4 4c8 8 17 13 27 18c3 2 7 3 10 4c11 4 22 7 33 7h10c5 0 11 -1 16 -2zM87 154l103 28l76 -76c-8 -6 -17 -13 -26 -17c-3 -1 -7 -2 -10 -3c-10 -4 -21 -7 -32 -7h-11c-11 0 -22 3 -32 7c-3 1 -8 2 -11 4c-10 5 -19 10 -27 18
c-1 1 -2 3 -3 4l-4 4c-8 8 -14 18 -19 28c-2 3 -3 6 -4 9v1zM298 229c4 -10 6 -21 7 -32v-11c-1 -11 -3 -23 -7 -33c-1 -4 -2 -7 -4 -11c-4 -9 -10 -17 -17 -25l-76 76l28 104l1 -1c3 -1 7 -2 10 -3c10 -5 20 -11 28 -19l4 -4l3 -3c8 -8 14 -18 19 -28c2 -3 3 -7 4 -10z" />
    <glyph glyph-name="uniF17D" unicode="&#xf17d;" horiz-adv-x="368" 
d="M288 48v192l16 16v-224h-304v288h240l-16 -16h-208v-256h272zM158 164l171 171l11 -11l-180 -180h-32v32l180 180l11 -11l-171 -171zM364 368c2 -3 4 -6 4 -10s-2 -7 -4 -10l-12 -12l-21 21l-11 11v0l12 12c3 2 6 4 10 4s7 -2 10 -4z" />
    <glyph glyph-name="uniF17E" unicode="&#xf17e;" horiz-adv-x="368" 
d="M128 176l180 180l32 -32l-180 -180h-32v32zM364 368c2 -3 4 -6 4 -10s-2 -7 -4 -10l-12 -12l-21 21l-11 11v0l12 12c3 2 6 4 10 4s7 -2 10 -4zM176 128l128 129v-3v-222h-304v288h240v0v0l-128 -128v-64h64z" />
    <glyph glyph-name="uniF17F" unicode="&#xf17f;" horiz-adv-x="416" 
d="M208 400c115 0 208 -93 208 -208s-93 -208 -208 -208s-208 93 -208 208s93 208 208 208zM208 383c-105 0 -191 -86 -191 -191c0 -47 17 -89 45 -122c18 8 62 24 90 32c2 1 3 0 3 10c0 11 -1 18 -4 24c-4 8 -7 20 -9 31c-4 5 -10 15 -14 33c-3 16 -1 22 1 28v2
c1 4 0 23 -3 38c-2 10 1 34 15 52c9 12 27 26 58 28h18c32 -2 49 -16 58 -28c14 -18 17 -42 15 -52c-3 -15 -4 -34 -3 -38c0 0 1 -1 1 -2c2 -6 3 -12 0 -28c-4 -18 -10 -27 -14 -32c-2 -11 -5 -24 -9 -32c-3 -7 -6 -15 -6 -23c0 -10 0 -10 2 -11c27 -8 73 -24 93 -32
c28 33 45 76 45 122c0 105 -86 191 -191 191z" />
    <glyph glyph-name="uniF180" unicode="&#xf180;" horiz-adv-x="416" 
d="M208 400c115 0 208 -93 208 -208s-93 -208 -208 -208s-208 93 -208 208s93 208 208 208zM208 1c59 0 111 27 146 69c-20 8 -66 24 -93 32c-2 1 -3 1 -3 11c0 8 4 16 7 23c4 8 7 21 9 32c4 5 10 14 14 32c3 16 2 22 0 28c0 0 -1 1 -1 2c-1 4 0 23 3 38c2 10 -1 34 -15 52
c-9 12 -26 26 -58 28h-18c-31 -2 -49 -16 -58 -28c-14 -18 -17 -42 -15 -52c3 -15 4 -34 3 -38v-2c-2 -6 -4 -12 -1 -28c4 -18 10 -28 14 -33c2 -11 5 -23 9 -31c3 -6 4 -13 4 -24c0 -10 -1 -9 -3 -10c-28 -8 -72 -24 -90 -32c35 -42 87 -69 146 -69z" />
    <glyph glyph-name="uniF181" unicode="&#xf181;" horiz-adv-x="288" 
d="M192 352v-64h64v-16h-80v80h16zM213 384l75 -75v-261h-48v-48h-240v336h48v48h165zM224 16v32h-176v272h-32v-304h208zM272 64v238l-65 66h-143v-304h208z" />
    <glyph glyph-name="uniF182" unicode="&#xf182;" horiz-adv-x="288" 
d="M32 32h16h192v-32h-240v336h32v-288v-16zM213 384l75 -75v-261h-48h-192v288v48h165zM256 272v16h-64v64h-16v-80h80z" />
    <glyph glyph-name="uniF183" unicode="&#xf183;" horiz-adv-x="320" 
d="M192 304h128v-304h-320v304h128v-16h-112v-272h288v272h-112v16zM97 196l55 -55v243h16v-243l55 55l11 -12l-74 -74l-74 74z" />
    <glyph glyph-name="uniF184" unicode="&#xf184;" horiz-adv-x="320" 
d="M168 304h152v-304h-320v304h152v-163l-55 55l-11 -12l74 -74l74 74l-11 12l-55 -55v163zM152 304v80h16v-80h-16z" />
    <glyph glyph-name="uniF185" unicode="&#xf185;" horiz-adv-x="352" 
d="M0 128v16h352v-16h-352zM0 184v16h352v-16h-352zM0 240v16h352v-16h-352z" />
    <glyph glyph-name="uniF186" unicode="&#xf186;" horiz-adv-x="384" 
d="M0 320h384v-256h-384v256zM192 180l163 124h-326zM16 80h352v214l-115 -88l68 -77l-2 -2l-79 70l-48 -37l-48 37l-79 -70l-2 2l68 77l-115 88v-214z" />
    <glyph glyph-name="uniF187" unicode="&#xf187;" horiz-adv-x="384" 
d="M384 64h-384v242l131 -100l-68 -77l2 -2l79 70l48 -37l48 37l79 -70l2 2l-68 77l131 100v-242zM376 320l-184 -140l-184 140h368z" />
    <glyph glyph-name="uniF188" unicode="&#xf188;" horiz-adv-x="384" 
d="M383 192l1 -1l-6 -6c-21 -21 -47 -48 -78 -69c-36 -24 -72 -36 -108 -36c-83 0 -130 49 -185 105l-7 7l1 1c39 40 67 64 94 81c32 20 63 30 97 30c83 0 146 -60 191 -112zM192 288c-62 0 -111 -36 -170 -96c24 -24 48 -50 76 -68c30 -20 60 -28 94 -28
c75 0 133 56 171 95c-26 29 -50 50 -74 66c-32 21 -64 31 -97 31zM192 112c-44 0 -80 36 -80 80s36 80 80 80s80 -36 80 -80s-36 -80 -80 -80zM192 256c-35 0 -64 -29 -64 -64s29 -64 64 -64s64 29 64 64s-29 64 -64 64zM224 192h16v0c0 -26 -22 -48 -48 -48s-48 21 -48 48
s22 48 48 48v-16c-16 0 -32 -13 -32 -31s15 -33 32 -33s32 14 32 32v0z" />
    <glyph glyph-name="uniF189" unicode="&#xf189;" horiz-adv-x="384" 
d="M383 192l1 -1l-6 -6c-21 -21 -47 -48 -78 -69c-36 -24 -72 -36 -108 -36c-83 0 -130 49 -185 105l-7 7l1 1c39 40 67 64 94 81c32 20 63 30 97 30c83 0 146 -60 191 -112zM192 112c44 0 80 36 80 80s-36 80 -80 80s-80 -36 -80 -80s36 -80 80 -80zM186 221
c0 -19 16 -35 35 -35c7 0 14 2 19 6v0c0 -27 -22 -48 -48 -48s-48 21 -48 48s22 48 48 48c-4 -5 -6 -12 -6 -19z" />
    <glyph glyph-name="uniF18A" unicode="&#xf18a;" 
d="M16 293v-202l184 101zM240 292v0v-78v-27v-95l176 100zM224 320v0l224 -128l-224 -128v123l-224 -123v256l224 -123v123z" />
    <glyph glyph-name="uniF18B" unicode="&#xf18b;" 
d="M224 320v0l224 -128l-224 -128v123l-224 -123v256l224 -123v123z" />
    <glyph glyph-name="uniF18C" unicode="&#xf18c;" horiz-adv-x="352" 
d="M288 320l64 -96v-160h-176h-176v160l64 96h224zM333 224l-45 68v-68h45zM80 304v-80h48c0 -26 22 -48 48 -48s48 22 48 48h48v80h-192zM64 292l-45 -68h45v68zM336 80v128h-98c-7 -28 -32 -48 -62 -48s-55 20 -62 48h-98v-128h160h160z" />
    <glyph glyph-name="uniF18D" unicode="&#xf18d;" horiz-adv-x="352" 
d="M176 160c30 0 55 20 62 48h114v-144h-176h-176v144h114c7 -28 32 -48 62 -48zM64 224h-7h-57l64 96v0v-80h16v80h192v-80h16v80v0l64 -96h-56h-8h-16h-8h-40c0 -26 -22 -48 -48 -48s-48 22 -48 48h-39h-9h-16z" />
    <glyph glyph-name="uniF18E" unicode="&#xf18e;" horiz-adv-x="384" 
d="M0 349v35h32v-35h-32zM303 366h-222v-142h222v142zM320 384v0v-177h-256v177h256zM303 160h-222v-143h222v143zM320 178v0v-178h-256v178h256zM0 279v35h32v-35h-32zM0 210v34h32v-34h-32zM0 140v34h32v-34h-32zM0 70v35h32v-35h-32zM0 0v35h32v-35h-32zM352 349v35h32
v-35h-32zM352 279v35h32v-35h-32zM352 210v34h32v-34h-32zM352 140v34h32v-34h-32zM352 70v35h32v-35h-32zM352 0v35h32v-35h-32z" />
    <glyph glyph-name="uniF18F" unicode="&#xf18f;" horiz-adv-x="384" 
d="M0 349v35h32v-35h-32zM320 384v0v-177h-256v177h256zM320 178v0v-178h-256v178h256zM0 279v35h32v-35h-32zM0 210v34h32v-34h-32zM0 140v34h32v-34h-32zM0 70v35h32v-35h-32zM0 0v35h32v-35h-32zM352 349v35h32v-35h-32zM352 279v35h32v-35h-32zM352 210v34h32v-34h-32z
M352 140v34h32v-34h-32zM352 70v35h32v-35h-32zM352 0v35h32v-35h-32z" />
    </font>
</defs>
</svg>
